Welcome Guest ( Log In | Register )

> Grailight - Sic Luceat Lux​!​!​! (2019), Symphonic Extreme Metal
post Aug 24 2019, 05:53:45
Post #1

Литр
*
Group: Подсевший
Posts: 75
Releases: 51
From: Москва
On Forums: 12 years 9 months
Thanks: 1372 time(s)
Russian Federation


(IMG:http://metalarea.org/images/audiocovers/2019_Aug/acov_tid326349_thumb.jpg)

*Artist: Grailight
*Album: Sic Luceat Lux​!​!​!
*Year: 2019
*Genre: Symphonic Extreme Metal
*Country: Russian Federation (IMG:http://metalarea.org/forum/style_images/flags/Russian%20Federation.png)
*Format: mp3@CBR320kbps
*Size: 155MB

Tracklist:
1 Fortunæ Fortunarum 01:17
2 Homo Divinus (Iniquitous Yoke Part II) 04:25
3 Γιορτή Άρηιος (The Feast Of Wargod) 05:37
4 The Witching Panegyris 05:35
5 My Faerie Undine 04:15
6 Zorya-Zoryanitsa 06:29
7 Venera Stella 04:08
8 Unbridled Hate 03:34
9 Selena's Sunless Grief 08:11
10 Lo, Solemn Coronach! 07:10
11 Ambrosian Iriyan Meadows 09:21
12 Of Volgatears And Princesswoe 09:26
13 Сады Небесных Наслаждений 05:32
******************************
Total playing time: 1:15:00


Preview 2


Technical info
(IMG:http://metalarea.org/images/spectrogram/2019_Aug/b2326173d6cb4ba854b7063809409bf9.png)
Input File: 13-Сады Небесных Наслаждений.mp3
Channels : 2
Sample Rate : 44100
Precision : 16-bit
Duration : 00:05:31.81 = 14632821 samples = 24885.8 CDDA sectors
File Size : 13.4M
Bit Rate : 324k
Sample Encoding: MPEG audio (layer I, II or III)
Comments :
Title=Сады Небесных Наслаждений
Artist=Grailight
Album=Sic Luceat Lux​!​!​!
Tracknumber=13/13
Year=2019
Genre=Symphonic Extreme Metal



Register


Go to the top of the page
  Insert nick Quick quote
+Quote Post
 
Start new topic
Replies (1 - 8)
post Aug 24 2019, 11:27:15
Post #2

Правь статус, ####!111
**************
Group: Металариец
Posts: 2,488
Releases: 36
From: Nakhodka
On Forums: 10 years 1 month
Thanks: 2228 time(s)
Russian Federation


Ого, не прошло и три года, как Arcane Grail выпустили обещанный альбом. Хотя нет, дофига уже времени прошло, даже название группы успели сменить. Ну, послушаем-с.
Go to the top of the page
  Insert nick Quick quote
+Quote Post
post Aug 24 2019, 14:04:21
Post #3

Два Литра
**
Group: Завсегдатай
Posts: 129
Releases: 2
On Forums: 10 years 5 days
Thanks: 154 time(s)
Russian Federation


ЦИТАТА(Lucifer @ Aug 24 2019, 15:27:15) *
Ого, не прошло и три года, как Arcane Grail выпустили обещанный альбом. Хотя нет, дофига уже времени прошло, даже название группы успели сменить. Ну, послушаем-с.

даже после того, как название сменили, прошло уже пару лет. Бывает и хуже - Blackguard, The Duskfall, My Last Suicide, Welicoruss...


Thanks:
Go to the top of the page
  Insert nick Quick quote
+Quote Post
post Aug 24 2019, 23:55:42
Post #4

Group: Подсевший
Posts: 30
Releases: 0
From: nurman
On Forums: 10 years 7 months
Thanks: 4 time(s)
Russian Federation


https://www.youtube.com/watch?v=Fvvyx7C7kns


Thanks:
(1) Sanctus,
Go to the top of the page
  Insert nick Quick quote
+Quote Post
post Aug 25 2019, 16:24:13
Post #5

Литр
*
Group: Подсевший
Posts: 98
Releases: 0
From: Baltimore, MD
On Forums: 13 years 3 months
Thanks: 9 time(s)
United States


Any other links? This one is all used up.
Go to the top of the page
  Insert nick Quick quote
+Quote Post
post Aug 25 2019, 19:49:11
Post #6

Маньяк
**********
Group: Металариец
Posts: 1,285
Releases: 227
On Forums: 11 years 7 months
Thanks: 4578 time(s)
Russian Federation


ЦИТАТА(Dogman @ Aug 25 2019, 18:24:13) *
Any other links?

Register
Go to the top of the page
  Insert nick Quick quote
+Quote Post
post Mar 20 2020, 12:57:13
Post #7

FOLK METAL FEVER
**************
Group: Металариец
Posts: 2,087
Releases: 6
From: Kyiv
On Forums: 12 years 8 months
Thanks: 277 time(s)
Ukraine


попахивает Tvangeste (IMG:style_emoticons/default/smile1.gif)
Go to the top of the page
  Insert nick Quick quote
+Quote Post
post Mar 20 2020, 14:43:05
Post #8

Литр
*
Group: Подсевший
Posts: 82
Releases: 0
On Forums: 1 year 6 months
Thanks: 15 time(s)
Russian Federation


Здоровская музыка - тяжёлая, навороченная и интересная. Одного мне не достаточно - мелодичности. Но я как обычно слишком много хочу.
Go to the top of the page
  Insert nick Quick quote
+Quote Post
post Jun 30 2020, 14:01:36
Post #9

Маньяк
**********
Group: Металариец
Posts: 1,285
Releases: 227
On Forums: 11 years 7 months
Thanks: 4578 time(s)
Russian Federation


FLAC, please ! (IMG:style_emoticons/default/pray.gif)
Go to the top of the page
  Insert nick Quick quote
+Quote Post

Reply to this topicStart new topic
2 User(s) are reading this topic (2 Guests and 0 Anonymous Users)
0 Members:

 



- Lo-Fi Version Support form
Copyrights and abuse reports form
Time is now: 8th July 2020 - 23:56:56