Welcome Guest ( Log In | Register )

> Releases Upload / Добавление релизов

Добавить релиз тут / Click here to add release
Рекомендованные обменники / Recommended file shares

 
Reply to this topicStart new topic
> Funeralopolis - ...Of Death/...Of Prevailing Chaos [compilation] (2019), Death/Doom Metal
post Aug 24 2019, 12:23:43
Post #1

...
**************
Group: Металариец
Posts: 3,353
Releases: 1425
From: МЕЩЁРА
On Forums: 11 years 6 months
Thanks: 40630 time(s)
Russian Federation


(IMG:http://metalarea.org/images/audiocovers/2019_Aug/acov_tid326412_thumb.jpg)

*Artist: Funeralopolis
*Album: ...Of Death/...Of Prevailing Chaos [compilation]
*Year: 2019
*Genre: Death/Doom Metal
*Country: Switzerland (IMG:http://metalarea.org/forum/style_images/flags/Switzerland.png)
*Format: mp3@CBR320kbps
*Size: 128MB

Tracklist:
01. The Wrath (Of The Dead) 05:33
02. Day Of Mourning 04:43
03. Pit Of Death 03:28
04. Devouring Crypts Of Darkness 03:57
05. Existence Beyond 06:56
06. Intro (Tonight I Will Possess Your Corpse) 01:03
07. Euphoric Blasphemy 04:18
08. Curse Of Darkness 04:24
09. Achluophobia 04:07
10. Bo' Nguloth 04:40
11. Beneath Deathless Depths 03:44
12. Tale Of A Mass 09:57
******************************
Total playing time: 56:50




Extended info
Tracks 1-5: "...of Death" demo (2010)
Tracks 6-12: "...of Prevailing Chaos" EP (2013)



Technical info
(IMG:http://metalarea.org/images/spectrogram/2019_Aug/9a6e02ec70af3f79908059b85edf8925.png)
Input File: 07 Euphoric Blasphemy.mp3
Channels : 2
Sample Rate : 44100
Precision : 16-bit
Duration : 00:04:18.29 = 11390413 samples = 19371.5 CDDA sectors
File Size : 10.5M
Bit Rate : 325k
Sample Encoding: MPEG audio (layer I, II or III)
Comments :
Title=Euphoric Blasphemy
Artist=Funeralopolis
Album=...of Death / ...of Prevailing Chaos
Tracknumber=7
Year=2019



Register


Go to the top of the page
  Insert nick Quick quote
+Quote Post

Reply to this topicStart new topic
2 User(s) are reading this topic (2 Guests and 0 Anonymous Users)
0 Members:

 



- Lo-Fi Version Support form
Copyrights and abuse reports form
Time is now: 17th October 2019 - 19:19:47