Welcome Guest ( Log In | Register )

> Правила / Rules

Тут только для чтения лежат низкобитрейтные (<192kbps) релизы, для которых есть аналоги в высокобитрейтных форумах.

Here goes (and stand in read only mode) low bitrate releases (<192kbps) which were already replaced by high bitrate releases in corresponding forums.

> Dragonforce - Extreme Power Metal (2019), Power Metal (D)
post Aug 26 2019, 16:57:02
Post #1

Правь статус, ####!111
**************
Group: Металариец
Posts: 19,792
Releases: 13423
From: Г.Харьков
On Forums: 7 years 6 months
Thanks: 232269 time(s)
Unknown


(IMG:http://metalarea.org/images/audiocovers/2019_Aug/acov_tid326537_thumb.jpg)

*Artist: Dragonforce
*Album: Extreme Power Metal
*Year: 2019
*Genre: Power Metal
*Country: United Kingdom (IMG:http://metalarea.org/forum/style_images/flags/United%20Kingdom.png)
*Format: mp3@CBR192kbps
*Size: 77MB

Tracklist:
1. Highway to Oblivion 06:48
2. Cosmic Power of the Infinite Shred Machine 06:36
3. The Last Dragonborn 06:12
4. Heart Demolition 05:39
5. Troopers of the Stars 05:03
6. Razorblade Meltdown 04:45
7. Strangers 04:29
8. In a Skyforged Dream 04:45
9. Rememberance Day 05:10
10. My Heart Will Go On (Celine Dion cover) 03:24
******************************
Total playing time: 52:51

(IMG:http://metalarea.org/images/youtube.png)


Extended info
В ЛОУ
Herman Li Guitars, Vocals (backing)
Sam Totman Guitars, Vocals (backing)
Frédéric Leclercq Bass, Vocals (backing)
Marc Hudson Vocals (lead)
Gee Anzalone Drums, Vocals (backing)


Technical info
(IMG:http://metalarea.org/images/spectrogram/2019_Aug/c88c4483f080cbf9eb7978f41ccd778e.png)
Input File: 03. The Last Dragonborn.mp3
Channels : 2
Sample Rate : 44100
Precision : 16-bit
Duration : 00:06:12.73 = 16437437 samples = 27954.8 CDDA sectors
File Size : 9.51M
Bit Rate : 204k
Sample Encoding: MPEG audio (layer I, II or III)
Comments :
Title=The Last Dragonborn
Artist=DragonForce
Album=Extreme Power Metal
Tracknumber=03
Year=2019
Genre=Power Metal
Discnumber=1



Register


Go to the top of the page
  Insert nick Quick quote
+Quote Post
2 Pages V  < 1 2  
Start new topic
Replies (30 - 32)
post Sep 2 2019, 13:47:56
Post #31

Попсовик от брутала
**************
Group: Металариец
Posts: 7,039
Releases: 66
From: Минск
On Forums: 11 years 6 days
Thanks: 6064 time(s)
Belarus


Черт, там еще и говно с жиром вперемешку.


Thanks:
Go to the top of the page
  Insert nick Quick quote
+Quote Post
post Sep 2 2019, 13:49:17
Post #32

И Ван Дамм По Делам Вашим!
**************
Group: Металариец
Posts: 18,000
Releases: 26
On Forums: 11 years 5 months
Thanks: 9705 time(s)
Honduras


ЦИТАТА(Tular @ Sep 2 2019, 15:47:56) *
Черт, там еще и говно с жиром вперемешку.

Меняй моник сразу, это не отмоется. (IMG:style_emoticons/default/1488.gif)


Thanks:
(1) plfan93,
Go to the top of the page
  Insert nick Quick quote
+Quote Post
post Sep 2 2019, 16:50:48
Post #33

Мегаманьяк
***********
Group: Металариец
Posts: 1,760
Releases: 0
From: Харьков
On Forums: 10 years 2 months
Thanks: 737 time(s)
Ukraine


ЦИТАТА(vosmidesijatye @ Sep 1 2019, 16:01:53) *
Ну шредку подбросили и че, экстрим сразу?

Ты так говоришь будто шреда у паверщиков до ЧоБ не было.

ЦИТАТА(vosmidesijatye @ Sep 1 2019, 16:01:53) *
Мальм и то экстремальнее звучит

Мальм вообще один из основных источников влияния на очень многих в жанре. Даже классиков типа Стратовариус.
Go to the top of the page
  Insert nick Quick quote
+Quote Post

2 Pages V  < 1 2
Причина закрытия (DarkHorde 25-09-2019): Dragonforce - Extreme Power Metal (2019)
Closed TopicStart new topic
1 User(s) are reading this topic (1 Guests and 0 Anonymous Users)
0 Members:

 



- Lo-Fi Version Support form
Copyrights and abuse reports form
Time is now: 8th December 2019 - 19:24:53