Welcome Guest ( Log In | Register )

> Tarja - In The Raw (2019), Symphonic Metal
post Aug 28 2019, 18:55:09
Post #1

Правь статус, ####!111
**************
Group: Металариец
Posts: 20,674
Releases: 14117
From: Г.Харьков
On Forums: 7 years 9 months
Thanks: 249424 time(s)
Unknown


(IMG:http://metalarea.org/images/audiocovers/2019_Aug/acov_tid326603_thumb.jpg)

*Artist: Tarja
*Album: In The Raw
*Year: 2019
*Genre: Symphonic Metal
*Country: Finland (IMG:http://metalarea.org/forum/style_images/flags/Finland.png)
*Format: mp3@CBR320kbps
*Size: 129MB

Tracklist:
1. Dead Promises 05:52
2. Goodbye Stranger 05:12
3. Tears in Rain 04:28
4. Railroads 04:01
5. You and I 04:08
6. The Golden Chamber: Awaken / Loputon yö / Alchemy 07:06
7. Spirits of the Sea 06:56
8. Silent Masquerade 07:32
9. Serene 04:42
10. Shadow Play 07:23
******************************
Total playing time: 57:20



Extended info
Tarja Vocals, Piano (2004-present)
See also: Harus, Noche Escandinava, Outlanders, ex-Nightwish, ex-Asspera (live)
Max Lilja Cello (2007-present)
See also: Eilera (live), ex-Apocalyptica, ex-Hevein
Alex Scholpp Guitars (2007-present)
See also: Farmer Boys, Sinner, Tieflader, Dacia and the Weapons of Mass Destruction
Christian Kretschmar Keyboards, Piano, Hammond organ (2009-present)
Kevin Chown Bass (2010-present)
See also: Cosmosquad, Sebastian Bach (live), ex-Edwin Dare, Pleezer, ex-Artension, ex-Tiles, ex-Tony MacAlpine, ex-John West, ex-Magnitude 9, ex-Cozy Powell's Hammer, ex-Mike Terrana



Technical info
(IMG:http://metalarea.org/images/spectrogram/2019_Aug/3fcf1b47b05582b50f3ec6c34f6258e5.png)
Input File: 02-tarja-goodbye_stranger_(with_cristina_scabbia).mp3
Channels : 2
Sample Rate : 44100
Precision : 16-bit
Duration : 00:05:11.01 = 13715453 samples = 23325.6 CDDA sectors
File Size : 12.4M
Bit Rate : 320k
Sample Encoding: MPEG audio (layer I, II or III)
Comments :
Title=Goodbye Stranger (with Cristina Scabbia)
Artist=Tarja
Album=In The Raw
Tracknumber=2
Year=2019
Genre=Metal



Register


Go to the top of the page
  Insert nick Quick quote
+Quote Post
4 Pages V  « < 2 3 4  
Start new topic
Replies (90 - 93)
post Sep 5 2019, 08:45:59
Post #91

21st Century Schizoid Man
**************
Group: Металариец
Posts: 6,282
Releases: 78
From: Moscow
On Forums: 11 years 9 months
Thanks: 5077 time(s)
Russian Federation


Это фантомные боли.


Thanks:
Go to the top of the page
  Insert nick Quick quote
+Quote Post
post Sep 5 2019, 08:47:31
Post #92

Чёткий пацан из Автово...
Group Icon
Group: V.I.P
Posts: 8,939
Releases: 34
From: Город над вольной Невой...
On Forums: 13 years 8 months
Thanks: 4324 time(s)
Russian Federation


ЦИТАТА(Yarri @ 5th September 2019 - 10:45:59) *
Это фантомные боли.

(IMG:style_emoticons/default/15.gif) да не насилуй себя))
Go to the top of the page
  Insert nick Quick quote
+Quote Post
post Sep 21 2019, 16:57:41
Post #93

Ъ
**************
Group: Металариец
Posts: 9,925
Releases: 9
On Forums: 11 years 1 month
Thanks: 1967 time(s)
Sweden


До сих пор плевался с каждого сольника Тарьи, но этот внезапно получился приличным, засел в плеере на неделю, правильно тут говорят, что меньше оперных тем и больше разнообразия в эмоциях вокала и музыке пошло проекту на пользу.


Thanks:
(1) Foneg,
Go to the top of the page
  Insert nick Quick quote
+Quote Post
post Oct 2 2019, 10:39:31
Post #94

Правь статус, ####!111
**************
Group: Металариец
Posts: 3,761
Releases: 11
From: Москва и МО
On Forums: 13 years 7 months
Thanks: 1019 time(s)
Russian Federation


Мне наоборот вроде прошлый понравился (хотя раньше ее сольников не слушал), а тут скукотища.
Все равно слушать музыку только из-за вокалистки, довольно тупо. Как например те же проекты вокалистов Tesseract дикая скукота, и только в рамках Tesseract эти вокалисты выкладываются по полной и чувствуется талант.
С композиторской точки зрения мне пресновато.
Go to the top of the page
  Insert nick Quick quote
+Quote Post

4 Pages V  « < 2 3 4
Reply to this topicStart new topic
2 User(s) are reading this topic (2 Guests and 0 Anonymous Users)
0 Members:

 



- Lo-Fi Version Support form
Copyrights and abuse reports form
Time is now: 25th February 2020 - 10:08:57