Welcome Guest ( Log In | Register )

> Releases Upload / Добавление релизов

Добавить релиз тут / Click here to add release
Рекомендованные обменники / Recommended file shares

> Obsidian Tide - Pillars Of Creation (2019), Progressive Death Metal/Post-Metal
post Aug 30 2019, 21:42:32
Post #1

Правь статус, ####!111
**************
Group: Металариец
Posts: 19,102
Releases: 12898
From: Г.Харьков
On Forums: 7 years 5 months
Thanks: 221322 time(s)
Unknown


(IMG:http://metalarea.org/images/audiocovers/2019_Aug/acov_tid326714_thumb.jpg)

*Artist: Obsidian Tide
*Album: Pillars Of Creation
*Year: 2019
*Genre: Progressive Death Metal/Post-Metal
*Country: Israel (IMG:http://metalarea.org/forum/style_images/flags/Israel.png)
*Format: mp3@CBR320kbps
*Size: 126MB

Tracklist:
1. Pillars of Creation 05:57
2. Seven 06:45
3. King of a New Realm 08:05
4. Portent of Betrayal 05:36
5. Hireath 09:45
6. The Harbinger and the Millenial Vengeance 07:31
7. Magnanimous 11:18
******************************
Total playing time: 54:57




Extended info
Oz Avneya
Erez Nadler
Shachar Bieber



Technical info
(IMG:http://metalarea.org/images/spectrogram/2019_Aug/90620d44dce11fcbb302497c60631903.png)
Input File: 02 Seven.mp3
Channels : 2
Sample Rate : 44100
Precision : 16-bit
Duration : 00:06:45.79 = 17895119 samples = 30433.9 CDDA sectors
File Size : 16.2M
Bit Rate : 320k
Sample Encoding: MPEG audio (layer I, II or III)
Comments :
Title=Seven
Artist=Obsidian Tide
Album=Pillars of Creation
Tracknumber=2
Year=2019
Genre=Metal



Register


Go to the top of the page
  Insert nick Quick quote
+Quote Post
 
Start new topic
Replies (1 - 4)
post Sep 1 2019, 12:55:37
Post #2

Ёлд ХеллоВяйне
Group Icon
Group: V.I.P
Posts: 28,026
Releases: 132
From: Питер
On Forums: 12 years 11 months
Thanks: 15911 time(s)
Russian Federation


Звук глуховат, но по всем превьюхам толковая вещь.
Go to the top of the page
  Insert nick Quick quote
+Quote Post
post Sep 2 2019, 15:07:18
Post #3

к приему виски готов
*******
Group: Металариец
Posts: 739
Releases: 2
From: Украина
On Forums: 10 years 7 months
Thanks: 438 time(s)
Ukraine


неплохо, но не хватает сочной соло гитары. есть смысл прослушать пару раз. (IMG:style_emoticons/default/pleased.gif)
Go to the top of the page
  Insert nick Quick quote
+Quote Post
post Sep 6 2019, 01:53:57
Post #4

Ъ
**************
Group: Металариец
Posts: 9,713
Releases: 9
On Forums: 10 years 9 months
Thanks: 1903 time(s)
Sweden


В превью Опет на минималках.
Go to the top of the page
  Insert nick Quick quote
+Quote Post
post Oct 9 2019, 14:40:44
Post #5

Правь статус, ####!111
**************
Group: Металариец
Posts: 3,614
Releases: 11
From: Москва и МО
On Forums: 13 years 3 months
Thanks: 943 time(s)
Russian Federation


Показалось довольно симпатичным и достойным пары прослушек. Скачал, чтобы в этом убедиться.
В итоге в целом довольно средне, но слушается хорошо.
Go to the top of the page
  Insert nick Quick quote
+Quote Post

Reply to this topicStart new topic
2 User(s) are reading this topic (2 Guests and 0 Anonymous Users)
0 Members:

 



- Lo-Fi Version Support form
Copyrights and abuse reports form
Time is now: 22nd October 2019 - 07:52:05