Welcome Guest ( Log In | Register )

> Graveview - Demo '19 [demo] (2019), Death Metal
post Aug 31 2019, 17:13:08
Post #1

𝕻𝕬𝕹𝕬𝕮𝕰𝕬
*******
Group: Металариец
Posts: 712
Releases: 403
On Forums: 7 years 5 months
Thanks: 6173 time(s)
Unknown


(IMG:http://metalarea.org/images/audiocovers/2019_Aug/acov_tid326735_thumb.jpg)

*Artist: Graveview
*Album: Demo '19 [demo]
*Year: 2019
*Genre: Death Metal
*Country: United States (IMG:http://metalarea.org/forum/style_images/flags/United%20States.png)
*Format: mp3@CBR320kbps
*Size: 28MB

Tracklist:
1. Inconceivable Possession 03:53
2. Unrivaled Punishment 03:32
3. Amalgamation Of Insanity 04:20
******************************
Total playing time: 11:45



Extended info
"Demos '18-'19" physical copies:

Redefining Darkness Records (US)
graveview-us.bandcamp.com/album/graveview-demos-18-19

Raw Skull Recordz (Europe)
rawskullrecordz.bandcamp.com/album/graveview-demos-18-19


Technical info
(IMG:http://metalarea.org/images/spectrogram/2019_Aug/53cbeb5f30cc4631cfcfd991536c1c6d.png)
Input File: 02 - Unrivaled Punishment.mp3
Channels : 2
Sample Rate : 44100
Precision : 16-bit
Duration : 00:03:32.39 = 9366399 samples = 15929.2 CDDA sectors
File Size : 8.61M
Bit Rate : 324k
Sample Encoding: MPEG audio (layer I, II or III)
Comments :
Title=Unrivaled Punishment
Artist=Graveview
Album=Demo '19
Tracknumber=2
Year=2019
Genre=22



Register


Go to the top of the page
  Insert nick Quick quote
+Quote Post
 
Start new topic
Replies (1 - 1)
post Aug 31 2019, 19:25:10
Post #2

Crush The Enemies
**************
Group: Металариец
Posts: 4,254
Releases: 0
From: Moscow
On Forums: 10 years 2 months
Thanks: 2477 time(s)
Russian Federation



ШикаРРРный флоридский ДЭТ с бронебойным саундом и вокалом!!! (IMG:style_emoticons/default/metaler.gif) (IMG:style_emoticons/default/metaler.gif) (IMG:style_emoticons/default/metaler.gif)

P.S Здесь выложена и вторая демка 2018 года - объединить с этой получится почти полноценный альбом. (IMG:style_emoticons/default/9.gif)

P.S Всем бы такого уровня альбомы выпускать. (IMG:style_emoticons/default/dwarf-1.gif) (IMG:style_emoticons/default/dwarf-1.gif) (IMG:style_emoticons/default/dwarf-1.gif)
Go to the top of the page
  Insert nick Quick quote
+Quote Post

Reply to this topicStart new topic
2 User(s) are reading this topic (2 Guests and 0 Anonymous Users)
0 Members:

 



- Lo-Fi Version Support form
Copyrights and abuse reports form
Time is now: 19th November 2019 - 06:48:00