Welcome Guest ( Log In | Register )

> И неформату есть предел.

Рэп/хип-хоп/шансон/поп удаляются. Для них есть свои порталы.

 
Reply to this topicStart new topic
> Here Lies Man - No Ground To Walk (2019), Psychedelic Rock/Afrobeat
post Sep 1 2019, 15:56:23
Post #1
BAN
Banned till
Oct 7 2019, 23:44:15



(IMG:http://metalarea.org/images/audiocovers/2019_Sep/acov_tid326772_thumb.jpg)

*Artist: Here Lies Man
*Album: No Ground To Walk
*Year: 2019
*Genre: Psychedelic Rock/Afrobeat
*Country: United States (IMG:http://metalarea.org/forum/style_images/flags/United%20States.png)
*Format: mp3@CBR320kbps
*Size: 60MB

Tracklist:
1. Clad In Silver 04:30
2. Swinging From Tress 03:39
3. Long Legs (Look Away) 03:43
4. Washing Bones 03:24
5. Get Ahold Of Yourself 02:52
6. Iron Rattles 04:54
7. Man Falls Down 03:18
******************************
Total playing time: 26:20



Technical info
(IMG:http://metalarea.org/images/spectrogram/2019_Sep/401ba2babb6f484e2a7fd743a016f250.png)
Input File: 01. Clad In Silver.mp3
Channels : 2
Sample Rate : 44100
Precision : 16-bit
Duration : 00:04:30.78 = 11941266 samples = 20308.3 CDDA sectors
File Size : 10.9M
Bit Rate : 323k
Sample Encoding: MPEG audio (layer I, II or III)
Comments :
Title=Clad In Silver
Artist=Here Lies Man
Album=No Ground To Walk Upon
Tracknumber=1/7
Year=2019-08-16
Genre=Psychedelic Rock / Afrobeat
Discnumber=1/1



Register


Go to the top of the page
  Insert nick Quick quote
+Quote Post

Reply to this topicStart new topic
1 User(s) are reading this topic (1 Guests and 0 Anonymous Users)
0 Members:

 



- Lo-Fi Version Support form
Copyrights and abuse reports form
Time is now: 21st September 2019 - 06:21:15