Welcome Guest ( Log In | Register )

> И неформату есть предел.

Рэп/хип-хоп/шансон/поп удаляются. Для них есть свои порталы.

 
Reply to this topicStart new topic
> Terceiro Olho De Marte - Herbarium Parabolicae Ou Língua Secreta Das Sementes (2019), Psychedelic/Acid Rock/Krautrock
post Sep 1 2019, 16:12:51
Post #1
BAN
Banned till
Oct 7 2019, 23:44:15



(IMG:http://metalarea.org/images/audiocovers/2019_Sep/acov_tid326775_thumb.jpg)

*Artist: Terceiro Olho De Marte
*Album: Herbarium Parabolicae Ou Língua Secreta Das Sementes
*Year: 2019
*Genre: Psychedelic/Acid Rock/Krautrock
*Country: Brazil (IMG:http://metalarea.org/forum/style_images/flags/Brazil.png)
*Format: mp3@CBR320kbps
*Size: 122MB

Tracklist:
1. Fausto 05:34
2. A Língua Secreta das Sementes (feat. Clau Aniz, Dani Wega and Paulo Maia) 09:14
3. Trovoada en Luna de Sangre (feat. Dani Wega) 06:12
4. Ela Passou Aqui 06:25
5. Persona 06:07
6. Dois Marujos na Boca da Mochila 04:45
7. Último Suspiro (feat. Glamourings) 06:21
8. Plasma 07:34
******************************
Total playing time: 52:12



Technical info
(IMG:http://metalarea.org/images/spectrogram/2019_Sep/bf51f7e1e9fc6008a3500d51b44a82d5.png)
Input File: 01 Fausto.mp3
Channels : 2
Sample Rate : 44100
Precision : 16-bit
Duration : 00:05:34.33 = 14744085 samples = 25075 CDDA sectors
File Size : 13.5M
Bit Rate : 323k
Sample Encoding: MPEG audio (layer I, II or III)
Comments :
Title=Fausto
Artist=Terceiro Olho de Marte
Album=Herbarium Parabolicae ou Língua Secreta das Sementes
Tracknumber=1
Year=2019



Register


Go to the top of the page
  Insert nick Quick quote
+Quote Post

Reply to this topicStart new topic
1 User(s) are reading this topic (1 Guests and 0 Anonymous Users)
0 Members:

 



- Lo-Fi Version Support form
Copyrights and abuse reports form
Time is now: 21st September 2019 - 05:53:33