Welcome Guest ( Log In | Register )

> И неформату есть предел.

Рэп/хип-хоп/шансон/поп удаляются. Для них есть свои порталы.

 
Reply to this topicStart new topic
> Twink - Think Pink Iv: Return To Deep Space (2019), Psychedelic Rock
post Sep 1 2019, 16:30:12
Post #1
BAN
Banned till
Oct 7 2019, 23:44:15



(IMG:http://metalarea.org/images/audiocovers/2019_Sep/acov_tid326781_thumb.jpg)

*Artist: Twink
*Album: Think Pink Iv: Return To Deep Space
*Year: 2019
*Genre: Psychedelic Rock
*Country: United Kingdom (IMG:http://metalarea.org/forum/style_images/flags/United%20Kingdom.png)
*Format: mp3@CBR320kbps
*Size: 93MB

Tracklist:
1. Sara From The Sahara 06:53
2. Fear The Unknown 03:13
3. Love Ashore 03:37
4. Ain´t Got A Clue 04:13
5. Sunbeams & Moonbeams & Silver Stars 03:04
6. Tear Of The Muskox 05:41
7. High & Dry 05:05
8. Bluebeard 01:55
9. Witches Of Love 04:07
******************************
Total playing time: 37:48



Technical info
(IMG:http://metalarea.org/images/spectrogram/2019_Sep/4b1b1d25dd0e55e142605a655f3b1333.png)
Input File: 01. Sara from the Sahara.mp3
Channels : 2
Sample Rate : 44100
Precision : 16-bit
Duration : 00:00:00.41 = 18213 samples = 30.9745 CDDA sectors
File Size : 17.2M
Bit Rate : 334M
Sample Encoding: MPEG audio (layer I, II or III)
Comments :
Title=Sara from the Sahara
Artist=Twink
Album=Think Pink IV: Return to Deep Space
Tracknumber=1/9
Year=2019
Genre=Rock
Discnumber=1/1



Register


Go to the top of the page
  Insert nick Quick quote
+Quote Post

Reply to this topicStart new topic
1 User(s) are reading this topic (1 Guests and 0 Anonymous Users)
0 Members:

 



- Lo-Fi Version Support form
Copyrights and abuse reports form
Time is now: 21st September 2019 - 05:51:25