Welcome Guest ( Log In | Register )

> И неформату есть предел.

Рэп/хип-хоп/шансон/поп удаляются. Для них есть свои порталы.

 
Reply to this topicStart new topic
> The Kundalini Genie - It's All In Your Head (2019), Psychedelic Rock
post Sep 1 2019, 16:33:12
Post #1
BAN
Banned till
Oct 7 2019, 23:44:15



(IMG:http://metalarea.org/images/audiocovers/2019_Sep/acov_tid326783_thumb.jpg)

*Artist: The Kundalini Genie
*Album: It's All In Your Head
*Year: 2019
*Genre: Psychedelic Rock
*Country: United Kingdom (IMG:http://metalarea.org/forum/style_images/flags/United%20Kingdom.png)
*Format: mp3@CBR320kbps
*Size: 101MB

Tracklist:
1. Clouds Of Your Mind 06:02
2. It's All In Your Head 05:57
3. Only Love (Liquid Technicolor) 05:58
4. Take You Away 05:58
5. The Future Oof The Past Is Now 06:15
6. A Song Of Love 07:17
7. You'll Find Out (When You're On Your Own) 06:29
******************************
Total playing time: 43:56



Technical info
(IMG:http://metalarea.org/images/spectrogram/2019_Sep/4e5d16ab24ca2853c5a9b689dadea8bf.png)
Input File: 01. The Kundalini Genie - Clouds of Your Mind.mp3
Channels : 2
Sample Rate : 44100
Precision : 16-bit
Duration : 00:06:02.13 = 15969889 samples = 27159.7 CDDA sectors
File Size : 14.6M
Bit Rate : 323k
Sample Encoding: MPEG audio (layer I, II or III)
Comments :
Title=Clouds of Your Mind
Artist=The Kundalini Genie
Album=It's All in Your Head
Tracknumber=01
Year=2019
Genre=Psychedelic Rock
Discnumber=1



Register


Go to the top of the page
  Insert nick Quick quote
+Quote Post

Reply to this topicStart new topic
1 User(s) are reading this topic (1 Guests and 0 Anonymous Users)
0 Members:

 



- Lo-Fi Version Support form
Copyrights and abuse reports form
Time is now: 21st September 2019 - 06:00:02