Welcome Guest ( Log In | Register )

> И неформату есть предел.

Рэп/хип-хоп/шансон/поп удаляются. Для них есть свои порталы.

 
Reply to this topicStart new topic
> Monarch - Beyond The Blue Sky (2019), Psychedelic/Progressive Rock (D)
post Sep 1 2019, 16:40:05
Post #1
BAN
Banned till
Oct 7 2019, 23:44:15



(IMG:http://metalarea.org/images/audiocovers/2019_Sep/acov_tid326786_thumb.jpg)

*Artist: Monarch
*Album: Beyond The Blue Sky
*Year: 2019
*Genre: Psychedelic/Progressive Rock
*Country: United States (IMG:http://metalarea.org/forum/style_images/flags/United%20States.png)
*Format: mp3@CBR320kbps
*Size: 84MB

Tracklist:
1. Hanging By A Thread
2. Divided Path
3. Pangea
4. Beyond The Blue Sky
5. Phenomena
6. Counterpartn
7. Felo De Se
******************************
Total playing time: 38:45

(IMG:http://metalarea.org/images/youtube.png)

Technical info
(IMG:http://metalarea.org/images/spectrogram/2019_Sep/c0ce5fb27220a22d71ad7a3d158ee555.png)
Input File: 01. hanging by a thread.mp3
Channels : 2
Sample Rate : 44100
Precision : 16-bit
Duration : 00:07:05.87 = 18781043 samples = 31940.5 CDDA sectors
File Size : 17.5M
Bit Rate : 328k
Sample Encoding: MPEG audio (layer I, II or III)
Comments :
Title=Hanging by a Thread
Artist=Monarch
Album=Beyond The Blue Sky
Tracknumber=01/07
Year=2019
Genre=Psychedelic Rock / Progressive Rock
Discnumber=1/1



Register


Go to the top of the page
  Insert nick Quick quote
+Quote Post

Reply to this topicStart new topic
1 User(s) are reading this topic (1 Guests and 0 Anonymous Users)
0 Members:

 



- Lo-Fi Version Support form
Copyrights and abuse reports form
Time is now: 21st September 2019 - 05:36:37