Welcome Guest ( Log In | Register )

> И неформату есть предел.

Рэп/хип-хоп/шансон/поп удаляются. Для них есть свои порталы.

> White Manna - Ape On Sunday (2019), Psychedelic/Acid Rock
post Sep 1 2019, 16:57:31
Post #1
BAN
Banned till
Oct 7 2019, 23:44:15



(IMG:http://metalarea.org/images/audiocovers/2019_Sep/acov_tid326789_thumb.jpg)

*Artist: White Manna
*Album: Ape On Sunday
*Year: 2019
*Genre: Psychedelic/Acid Rock
*Country: United States (IMG:http://metalarea.org/forum/style_images/flags/United%20States.png)
*Format: mp3@CBR320kbps
*Size: 81MB

Tracklist:
1. Ape On Sunday 07:10
2. Spirit Of St. Louis 06:19
3. O Captain 03:34
4. Night In Lisbon 03:55
5. Eye In The Cloud That Serves As Thunder 05:52
6. Zodiak Spree 05:03
7. More More More 03:03
******************************
Total playing time: 34:56



Technical info
(IMG:http://metalarea.org/images/spectrogram/2019_Sep/fe364627e10416e378a54a5c934ded54.png)
Input File: 01 Ape On Sunday.mp3
Channels : 2
Sample Rate : 44100
Precision : 16-bit
Duration : 00:07:10.37 = 18979097 samples = 32277.4 CDDA sectors
File Size : 17.3M
Bit Rate : 322k
Sample Encoding: MPEG audio (layer I, II or III)
Comments :
Title=Ape On Sunday
Artist=White Manna
Album=Ape On Sunday
Tracknumber=1
Year=2019
Genre=Psychedelic Rock / Krautrock



Register


Go to the top of the page
  Insert nick Quick quote
+Quote Post
 
Start new topic
Replies (1 - 1)
post Sep 2 2019, 18:05:16
Post #2
BAN
Banned till
Oct 7 2019, 23:44:15



Ребятки работают под The Doors, вокал так вообще почти оживший Джим. Неплохо, но слишком разряженно как то.
Go to the top of the page
  Insert nick Quick quote
+Quote Post

Reply to this topicStart new topic
1 User(s) are reading this topic (1 Guests and 0 Anonymous Users)
0 Members:

 



- Lo-Fi Version Support form
Copyrights and abuse reports form
Time is now: 21st September 2019 - 06:24:29