Welcome Guest ( Log In | Register )

> И неформату есть предел.

Рэп/хип-хоп/шансон/поп удаляются. Для них есть свои порталы.

> Lucy In Blue - In Flight (2019), Psychedelic/Progressive Rock/Heavy Psych
post Sep 1 2019, 21:40:04
Post #1
BAN
Banned till
Oct 7 2019, 23:44:15



(IMG:http://metalarea.org/images/audiocovers/2019_Sep/acov_tid326797_thumb.jpg)

*Artist: Lucy In Blue
*Album: In Flight
*Year: 2019
*Genre: Psychedelic/Progressive Rock/Heavy Psych
*Country: Iceland (IMG:http://metalarea.org/forum/style_images/flags/Iceland.png)
*Format: mp3@CBR320kbps
*Size: 91MB

Tracklist:
1. Alight, Pt. 1 02:31
2. Alight, Pt. 2 03:50
3. Respire 07:50
4. Matricide 04:17
5. Nùverandi 05:15
6. Tempest 04:15
7. In Flight 09:44
8. On Ground 03:09
******************************
Total playing time: 40:51



Technical info
(IMG:http://metalarea.org/images/spectrogram/2019_Sep/7ad3bcf6b9f7a61dca09ee52927a0004.png)
Input File: 01. Alight, Pt. 1.mp3
Channels : 2
Sample Rate : 44100
Precision : 16-bit
Duration : 00:02:32.07 = 6706155 samples = 11405 CDDA sectors
File Size : 6.12M
Bit Rate : 322k
Sample Encoding: MPEG audio (layer I, II or III)
Comments :
Title=Alight, Pt. 1
Artist=Lucy In Blue
Album=In Flight
Tracknumber=1
Year=2019
Genre=Progressive Rock/Psychedelic
Discnumber=1



Register


Go to the top of the page
  Insert nick Quick quote
+Quote Post
 
Start new topic
Replies (1 - 1)
post Sep 2 2019, 18:03:59
Post #2
BAN
Banned till
Oct 7 2019, 23:44:15



Шикарнейший альбом с обволакивающей атмосферой и звучком "под старину", но слушающимся современно и сытно.

Причем если дебют был хорош частично (2 песни всего пёрли), то тут весь альбом воспринимается как единое, неделимое полотно. Каждая песня по своему крута, Звуки перетекают друг в друга, при этом каждая песня имеет свою изюминку.

Любителям качественного нафталина рекоммендед, как говорится.

Кому нужен будет флак, сигнальте.
Go to the top of the page
  Insert nick Quick quote
+Quote Post

Reply to this topicStart new topic
1 User(s) are reading this topic (1 Guests and 0 Anonymous Users)
0 Members:

 



- Lo-Fi Version Support form
Copyrights and abuse reports form
Time is now: 21st September 2019 - 06:30:33