Welcome Guest ( Log In | Register )

> И неформату есть предел.

Рэп/хип-хоп/шансон/поп удаляются. Для них есть свои порталы.

> Zakaz - Kvalir (2018), Dark Ambient (D)
post Sep 2 2019, 01:05:00
Post #1

Group: Подсевший
Posts: 21
Releases: 1
On Forums: 4 months 2 weeks
Thanks: 17 time(s)
Iran


(IMG:http://metalarea.org/images/audiocovers/2019_Sep/acov_tid326800_thumb.jpg)

*Artist: Zakaz
*Album: Kvalir
*Year: 2018
*Genre: Dark Ambient
*Country: Iceland (IMG:http://metalarea.org/forum/style_images/flags/Iceland.png)
*Format: mp3@CBR320kbps
*Size: 97MB

Tracklist:
1. I 7:05
2. II 13:17
3. III 21:42
******************************
Total playing time: 42:04

Extended info


Technical info
(IMG:http://metalarea.org/images/spectrogram/2019_Sep/6e2eae44c9e611ad8c8ed7ff61ce6065.png)
Input File: III.mp3
Channels : 2
Sample Rate : 44100
Precision : 16-bit
Duration : 00:21:42.59 = 57444175 samples = 97694.2 CDDA sectors
File Size : 52.4M
Bit Rate : 322k
Sample Encoding: MPEG audio (layer I, II or III)
Comments :
Title=III
Artist=Zakaz
Album=Kvalir
Tracknumber=3
Year=2018
Genre=(137)Heavy Metal
Discnumber=1



Register


Go to the top of the page
  Insert nick Quick quote
+Quote Post
 
Start new topic
Replies (1 - 2)
post Sep 2 2019, 14:57:24
Post #2

Два Литра
**
Group: Завсегдатай
Posts: 186
Releases: 0
On Forums: 3 months 2 weeks
Thanks: 79 time(s)
Unknown


Талантливые люди, талантливы во всём. Вот и Zakaz показали что в не металической музыки они тоже весьма и весьма интересны.


Thanks:
Go to the top of the page
  Insert nick Quick quote
+Quote Post
post Sep 2 2019, 22:36:29
Post #3

Два Литра
**
Group: Завсегдатай
Posts: 163
Releases: 0
From: Чуркестан
On Forums: 12 years 2 weeks
Thanks: 15 time(s)
Uzbekistan


Подтверждаю, задорный и приятный "мрачный" эмбиэнт.
Go to the top of the page
  Insert nick Quick quote
+Quote Post

Reply to this topicStart new topic
1 User(s) are reading this topic (1 Guests and 0 Anonymous Users)
0 Members:

 



- Lo-Fi Version Support form
Copyrights and abuse reports form
Time is now: 21st September 2019 - 06:14:00