Welcome Guest ( Log In | Register )

> Releases Upload / Добавление релизов

Добавить релиз тут / Click here to add release
Рекомендованные обменники / Recommended file shares

> Master's Hammer - Demos. [compilation] (2013), Black Metal (D)
post Sep 2 2019, 09:57:33
Post #1

...
**************
Group: Металариец
Posts: 3,353
Releases: 1425
From: МЕЩЁРА
On Forums: 11 years 6 months
Thanks: 40630 time(s)
Russian Federation


(IMG:http://metalarea.org/images/audiocovers/2019_Sep/acov_tid326815_thumb.jpg)

*Artist: Master's Hammer
*Album: Demos. [compilation]
*Year: 2013
*Genre: Black Metal
*Country: Czech Republic (IMG:http://metalarea.org/forum/style_images/flags/Czech%20Republic.png)
*Format: mp3@CBR320kbps
*Size: 515MB

Tracklist:
CD I :
01. Kovový Chrám 04:53
02. Hej, Čerte Chlupatej 04:13
03. Černej Anděl 03:16
04. Blek Metl 02:05
05. Rychlejší Než Satan 03:52
06. Hodokvas 02:49
07. Hymna Černé Krve 09:57
08. Jáma Pekel 03:51
09. Šánečto 04:49
10. Lucifer 03:53
11. Signum Diabolis 03:35
12. Za Smlouvou Pekelnou 05:36
13. Zapálili Jsme Onen Svět 04:06
14. The Mass 03:11
15. Vzývání Úterní 03:05
16. Černá Svatozář 05:52

CD II :
01. Intro 02:41
02. Duše Nesmrtelných 03:35
03. Vzývání Úterní 03:00
04. Jáma Pekel 04:15
05. Lucifer2 06:02
06. Za Smlouvou Pekelnou 03:47
07. Přivítej Smrt 05:35
08. Šánečto 03:28
09. Intro 01:56
10. Zapálili Jsme Onen Svět 04:36
11. Signum Diabolis 03:34
12. Černá Svatozář 06:30
13. Skryté Síly 03:19
14. Věčný Návrat 03:39
15. The Mass 02:58
16. Vykoupení 05:37
17. Kolem Kotle 09:16

CD III :
01. Intro 02:19
02. Pád Modly 07:36
03. Každý Z Nás... 03:49
04. Géniové 05:18
05. Hnijící Ráj 03:39
06. Útok 07:45
07. Předehra 01:23
08. Mezi Kopci Cesta Je Klikatá 05:16
09. Já Nechci Mnoho Trápiti... 05:29
10. Ten Dvanácterák... 03:52
11. Můj Hejtmane... 06:20
12. Litografické Kalendáře 01:42
13. Já Mizérií Osudu... 05:00
14. Že Vše Jen Podle Mého... 04:32
15. Mediální Kresby 03:57
16. Suchardův Dům 05:53
******************************
Total playing time: 3:36:41






Extended info
+ Scans.

The first official collected edition of Master's Hammer demos. Unchanged sound from the original mastertapes. 3 CDs, 16-page booklet in glossy digipak.

Disc 1:
The Ritual Murder (1987) - tracks 1-7
Live in Zbraslav (18.5.1989) - tracks 8-16

Disc 2:
Finished (1988) - tracks 1-8
The Mass (1989) - tracks 9-17

Disc 3:
The Fall of Idol (1990) - tracks 1-6
Jilemnický okultista (1992) - tracks 7-16


Technical info
(IMG:http://metalarea.org/images/spectrogram/2019_Sep/fe4f2fb70c7a8c56688da0c6007d5352.png)
Input File: 08-Mezi Kopci Cesta Je Klikatá.mp3
Channels : 2
Sample Rate : 44100
Precision : 16-bit
Duration : 00:05:16.99 = 13979259 samples = 23774.2 CDDA sectors
File Size : 12.7M
Bit Rate : 320k
Sample Encoding: MPEG audio (layer I, II or III)
Comments :
Title=Mezi Kopci Cesta Je Klikata
Artist=MASTER'S HAMMER
Album=Demos.
Tracknumber=8
Year=2013
Genre=Black Metal



Register


Go to the top of the page
  Insert nick Quick quote
+Quote Post
 
Start new topic
Replies (1 - 2)
post Sep 3 2019, 16:08:46
Post #2

Два Литра
**
Group: Завсегдатай
Posts: 111
Releases: 50
On Forums: 11 years 10 months
Thanks: 1209 time(s)
Czech Republic


Scans
https://www.mediafire.com/file/p949y3mqoijy.../Scans.rar/file
Go to the top of the page
  Insert nick Quick quote
+Quote Post
post Sep 3 2019, 16:31:03
Post #3

...
**************
Group: Металариец
Posts: 3,353
Releases: 1425
From: МЕЩЁРА
On Forums: 11 years 6 months
Thanks: 40630 time(s)
Russian Federation


Register


Go to the top of the page
  Insert nick Quick quote
+Quote Post

Reply to this topicStart new topic
2 User(s) are reading this topic (2 Guests and 0 Anonymous Users)
0 Members:

 



- Lo-Fi Version Support form
Copyrights and abuse reports form
Time is now: 17th October 2019 - 19:51:49