Welcome Guest ( Log In | Register )

> И неформату есть предел.

Рэп/хип-хоп/шансон/поп удаляются. Для них есть свои порталы.

> Dead Feathers - All Is Lost (2019), Occult/Acid Rock/Heavy Psych
post Sep 2 2019, 19:05:51
Post #1
BAN
Banned till
Oct 7 2019, 23:44:15



(IMG:http://metalarea.org/images/audiocovers/2019_Sep/acov_tid326846_thumb.jpg)

*Artist: Dead Feathers
*Album: All Is Lost
*Year: 2019
*Genre: Occult/Acid Rock/Heavy Psych
*Country: United States (IMG:http://metalarea.org/forum/style_images/flags/United%20States.png)
*Format: mp3@CBR320kbps
*Size: 112MB

Tracklist:
1. At the Edge 05:12
2. With Me 05:07
3. Cordova 04:31
4. Horse and Sands 05:34
5. All is Lost 03:43
6. Darling Sighs 03:18
7. Smoking Gun 07:17
8. Night Child 04:37
9. Not Ours to Own 07:11
10. Found Caravan 01:17
******************************
Total playing time: 47:47



Technical info
(IMG:http://metalarea.org/images/spectrogram/2019_Sep/a12c4959e7d978fac1010f6ddd8ee90a.png)
Input File: 01 - At the Edge.mp3
Channels : 2
Sample Rate : 44100
Precision : 16-bit
Duration : 00:05:12.34 = 13774194 samples = 23425.5 CDDA sectors
File Size : 12.7M
Bit Rate : 326k
Sample Encoding: MPEG audio (layer I, II or III)
Comments :
Title=At the Edge
Artist=Dead Feathers
Album=All Is Lost
Tracknumber=01
Year=2019
Genre=Psychedelic Rock



Register


Go to the top of the page
  Insert nick Quick quote
+Quote Post
 
Start new topic
Replies (1 - 1)
post Sep 2 2019, 20:18:28
Post #2
BAN
Banned till
Oct 7 2019, 23:44:15



С женским вокалом.
Go to the top of the page
  Insert nick Quick quote
+Quote Post

Reply to this topicStart new topic
1 User(s) are reading this topic (1 Guests and 0 Anonymous Users)
0 Members:

 



- Lo-Fi Version Support form
Copyrights and abuse reports form
Time is now: 21st September 2019 - 06:16:04