Welcome Guest ( Log In | Register )

> Releases Upload / Добавление релизов

Добавить релиз тут / Click here to add release
Рекомендованные обменники / Recommended file shares

> Ignivomous - Hieroglossia (2019), Old School Death Metal (D)
post Sep 3 2019, 00:45:37
Post #1

Правь статус, ####!111
**************
Group: Металариец
Posts: 19,102
Releases: 12898
From: Г.Харьков
On Forums: 7 years 5 months
Thanks: 221309 time(s)
Unknown


(IMG:http://metalarea.org/images/audiocovers/2019_Sep/acov_tid326859_thumb.jpg)

*Artist: Ignivomous
*Album: Hieroglossia
*Year: 2019
*Genre: Old School Death Metal
*Country: Australia (IMG:http://metalarea.org/forum/style_images/flags/Australia.png)
*Format: mp3@CBR320kbps
*Size: 109MB

Tracklist:
1. Hieroglosssia 07:14
2. Circle of Scythes 05:18
3. Cloaked in Resplendent Perdition 05:54
4. Thalassophobia 04:41
5. Shackles of the Demiurge 05:18
6. Blood and Mercury 05:13
7. Gaunt Redemption Parasite 06:00
8. Vitriolic Swarm 06:23
******************************
Total playing time: 46:01




Extended info
Jael Edwards Vocals
Sean Hinds Guitars
Chris Jordon Bass
Chris Broadway Drums
Lewis Fischer Guitars


Technical info
(IMG:http://metalarea.org/images/spectrogram/2019_Sep/a691fa5a8bcff57eef689ff7e95dd05a.png)
Input File: 03 Cloaked in Resplendent Perdition.mp3
Channels : 2
Sample Rate : 44100
Precision : 16-bit
Duration : 00:05:53.88 = 15605976 samples = 26540.8 CDDA sectors
File Size : 14.2M
Bit Rate : 321k
Sample Encoding: MPEG audio (layer I, II or III)
Comments :
Title=Cloaked In Resplendent Perdition
Artist=Ignivomous
Album=Hieroglossia
Tracknumber=3
Year=2019
Genre=Death Metal



Register


Go to the top of the page
  Insert nick Quick quote
+Quote Post
 
Start new topic
Replies (1 - 6)
post Sep 3 2019, 20:23:05
Post #2

Маньяк
**********
Group: Металариец
Posts: 1,456
Releases: 0
On Forums: 11 years 8 months
Thanks: 621 time(s)
Russian Federation


Это зверские австралийцы. Хорошо взлабнули. Надоб освежить в памяти их прошлое творчество, как помнится оно такое же как тут.
Go to the top of the page
  Insert nick Quick quote
+Quote Post
post Sep 3 2019, 21:09:48
Post #3

Шесть Литров
******
Group: Металариец
Posts: 547
Releases: 0
On Forums: 6 years 2 months
Thanks: 350 time(s)
Australia


At least a good release these days.
Go to the top of the page
  Insert nick Quick quote
+Quote Post
post Sep 4 2019, 03:21:53
Post #4

Литр
*
Group: Подсевший
Posts: 89
Releases: 0
From: italy
On Forums: 12 years 4 months
Thanks: 12 time(s)
Italy


agree .. 1st good release i see from long time
Go to the top of the page
  Insert nick Quick quote
+Quote Post
post Sep 4 2019, 09:13:32
Post #5

hearer & reader
**************
Group: Металариец
Posts: 8,132
Releases: 106
From: Moscow
On Forums: 12 years 1 month
Thanks: 7606 time(s)
Russian Federation


Судя по тегам, готовилось для Bandcamp. А кодировано каким-то Xing'ом. (IMG:style_emoticons/default/17.gif)
Go to the top of the page
  Insert nick Quick quote
+Quote Post
post Sep 5 2019, 03:23:45
Post #6

Литр
*
Group: Подсевший
Posts: 89
Releases: 0
From: italy
On Forums: 12 years 4 months
Thanks: 12 time(s)
Italy


QUOTE(lunaraurora @ Sep 4 2019, 06:21:53) *
agree .. 1st good release i see from long time


.. and btw after listening to it, the worst album they did
Go to the top of the page
  Insert nick Quick quote
+Quote Post
post Oct 9 2019, 15:59:38
Post #7

Crush! Kill! Destroy!
**************
Group: Металариец
Posts: 5,089
Releases: 15
From: Kaliningrad
On Forums: 11 years 11 months
Thanks: 4676 time(s)
Russian Federation


Стали менее хаотичными / сумбурными, но не менее брутальными. Альбом прекрасен!

Пы.Сы. Пару раз переслушал - в ТОП года однозначно!


Thanks:
Go to the top of the page
  Insert nick Quick quote
+Quote Post

Reply to this topicStart new topic
2 User(s) are reading this topic (2 Guests and 0 Anonymous Users)
0 Members:

 



- Lo-Fi Version Support form
Copyrights and abuse reports form
Time is now: 22nd October 2019 - 07:25:40