Welcome Guest ( Log In | Register )

> И неформату есть предел.

Рэп/хип-хоп/шансон/поп удаляются. Для них есть свои порталы.

> Oblivion Machine - See You Rise [single] (2014), Industrial Metal (D10)
post Sep 3 2019, 02:04:32
Post #1

Шесть Литров
******
Group: Металариец
Posts: 691
Releases: 31
From: Vladivostok
On Forums: 9 years 10 months
Thanks: 991 time(s)
Russian Federation


(IMG:http://metalarea.org/images/audiocovers/2019_Sep/acov_tid326860_thumb.jpg)

*Artist: Oblivion Machine
*Album: See You Rise [single]
*Year: 2014
*Genre: Industrial Metal
*Country: Russian Federation (IMG:http://metalarea.org/forum/style_images/flags/Russian%20Federation.png)
*Format: mp3@CBR320kbps
*Size: 34MB

Tracklist:
01. See You Rise (Feat. Keri) 04:49
02. See You Rise (Feat. Serdj) 04:47
03. See You Rise (Post Remix) 05:22
******************************
Total playing time: 14:58

Technical info
(IMG:http://metalarea.org/images/spectrogram/2019_Sep/99e3d5ed17bd5d4cedc3b71d2a71d49f.png)
Input File: 01 - See You Rise (feat. Keri).mp3
Channels : 2
Sample Rate : 44100
Precision : 16-bit
Duration : 00:04:49.72 = 12776696 samples = 21729.1 CDDA sectors
File Size : 11.7M
Bit Rate : 322k
Sample Encoding: MPEG audio (layer I, II or III)
Comments :
Title=See You Rise (feat. Keri) darkscene.org
Artist=Oblivion Machine
Album=See You Rise
Tracknumber=01
Year=2014
Genre=Industrial Metal



Register


Thanks:
Go to the top of the page
  Insert nick Quick quote
+Quote Post
 
Start new topic
Replies (1 - 1)
post Sep 3 2019, 17:27:10
Post #2

...Only Death Is Real...
**************
Group: Металариец
Posts: 2,766
Releases: 15
On Forums: 9 years 1 month
Thanks: 1755 time(s)
Antarctica


Go to the top of the page
  Insert nick Quick quote
+Quote Post

Reply to this topicStart new topic
1 User(s) are reading this topic (1 Guests and 0 Anonymous Users)
0 Members:

 



- Lo-Fi Version Support form
Copyrights and abuse reports form
Time is now: 20th September 2019 - 22:06:46