Welcome Guest ( Log In | Register )

> Releases Upload / Добавление релизов

Добавить релиз тут / Click here to add release
Рекомендованные обменники / Recommended file shares

> Cloud Rat - Pollinator (2019), Grindcore
post Sep 3 2019, 14:24:46
Post #1

Serial Uploader
Group Icon
Group: V.I.P
Posts: 36,132
Releases: 34331
From: Lithuania
On Forums: 11 years 3 months
Thanks: 398108 time(s)
Lithuania


(IMG:https://metalarea.org/images/audiocovers/2019_Sep/acov_tid326878_thumb.jpg)

*Artist: Cloud Rat
*Album: Pollinator
*Year: 2019
*Genre: Grindcore
*Country: United States (IMG:https://metalarea.org/forum/style_images/flags/United%20States.png)
*Format: mp3@CBR320kbps
*Size: 83MB

Tracklist:
01. Losing Weight 01:15
02. Delayed Grief // Farmhouse Red 02:01
03. Seven Heads 01:59
04. Night Song 02:15
05. Wonder 01:59
06. The Mad 02:13
07. Al Di La 02:47
08. Last Leaf 02:46
09. Zula 00:43
10. Biome 02:14
11. Webspinner 02:08
12. Luminescent Cellar 04:16
13. Marionettes 02:19
14. Perla 02:50
******************************
Total playing time: 31:45



(IMG:https://metalarea.org/images/youtube.png)

Technical info
(IMG:https://metalarea.org/images/spectrogram/2019_Sep/7848ad8e7f5126a44e37ec713bcaa0df.png)
Input File: 02. Delayed Grief (Farmhouse Red).mp3
Channels : 2
Sample Rate : 44100
Precision : 16-bit
Duration : 00:02:01.74 = 5368734 samples = 9130.5 CDDA sectors
File Size : 5.24M
Bit Rate : 344k
Sample Encoding: MPEG audio (layer I, II or III)
Comments :
Title=Delayed Grief // Farmhouse Red
Artist=Cloud Rat
Album=Pollinator
Tracknumber=2
Year=2019
Genre=Metal



Register


Go to the top of the page
  Insert nick Quick quote
+Quote Post
 
Start new topic
Replies (1 - 1)
post Sep 11 2019, 10:29:50
Post #2

Шесть Литров
******
Group: Металариец
Posts: 525
Releases: 5
On Forums: 9 years 8 months
Thanks: 316 time(s)
Russian Federation


Никогда не нравились из-за стабильно скучного материала и ужасного вокала. На этом альбоме остались верны своим традициям.
Go to the top of the page
  Insert nick Quick quote
+Quote Post

Reply to this topicStart new topic
2 User(s) are reading this topic (2 Guests and 0 Anonymous Users)
0 Members:

 



- Lo-Fi Version Support form
Copyrights and abuse reports form
Time is now: 20th September 2019 - 06:28:12