Welcome Guest ( Log In | Register )

> И неформату есть предел.

Рэп/хип-хоп/шансон/поп удаляются. Для них есть свои порталы.

> The Black Wizards - Reflections (2019), 70´s Psychedelic/Stoner/Blues Rock/Heavy Psych
post Sep 3 2019, 21:48:12
Post #1
BAN
Banned till
Oct 7 2019, 23:44:15



(IMG:http://metalarea.org/images/audiocovers/2019_Sep/acov_tid326898_thumb.jpg)

*Artist: The Black Wizards
*Album: Reflections
*Year: 2019
*Genre: 70´s Psychedelic/Stoner/Blues Rock/Heavy Psych
*Country: Portugal (IMG:http://metalarea.org/forum/style_images/flags/Portugal.png)
*Format: mp3@CBR320kbps
*Size: 95MB

Tracklist:
1. Imposing Sun 03:28
2. Outlaws 06:25
3. 56th Floor 04:33
4. Starlight 06:18
5. Symphony Of The Ironic Sympathy 07:57
6. Soul Keeper 05:54
7. Kaleidoscope Eyes 06:57
******************************
Total playing time: 41:32



Technical info
(IMG:http://metalarea.org/images/spectrogram/2019_Sep/7066eca365424882bbd583b47a1b6190.png)
Input File: 01 - Imposing sun.mp3
Channels : 2
Sample Rate : 44100
Precision : 16-bit
Duration : 00:03:26.93 = 9125481 samples = 15519.5 CDDA sectors
File Size : 8.35M
Bit Rate : 323k
Sample Encoding: MPEG audio (layer I, II or III)
Comments :
Title=Imposing sun
Artist=The Black Wizards
Album=Reflections
Tracknumber=1
Year=2019
Genre=Rock
Discnumber=1



Register


Go to the top of the page
  Insert nick Quick quote
+Quote Post
 
Start new topic
Replies (1 - 4)
post Sep 5 2019, 19:12:58
Post #2
BAN
Banned till
Oct 7 2019, 23:44:15



Отличнейший релиз. (IMG:style_emoticons/default/pray.gif)

Олег помнится, их думом тэговал... (IMG:style_emoticons/default/15.gif)


Thanks:
Go to the top of the page
  Insert nick Quick quote
+Quote Post
post Sep 6 2019, 12:04:24
Post #3

Добрый
**************
Group: Металариец
Posts: 2,739
Releases: 0
On Forums: 1 year 2 months
Thanks: 2580 time(s)
Russian Federation


97 mb/320 kbps
Register


Thanks:
(1) Xor,
Go to the top of the page
  Insert nick Quick quote
+Quote Post
post Sep 6 2019, 13:34:51
Post #4

Семь Литров
*******
Group: Металариец
Posts: 725
Releases: 0
On Forums: 11 years 11 months
Thanks: 274 time(s)
Belarus


Что то совсем разонравилась такая музыка с женским вокалом (IMG:style_emoticons/default/smile2.gif)
Go to the top of the page
  Insert nick Quick quote
+Quote Post
post Sep 6 2019, 13:39:59
Post #5
BAN
Banned till
Oct 7 2019, 23:44:15



ЦИТАТА(gena @ Sep 6 2019, 15:34:51) *
Что то совсем разонравилась такая музыка с женским вокалом (IMG:style_emoticons/default/smile2.gif)


Слишком много развелось групп. Перенасыщение. (IMG:style_emoticons/default/bye.gif)


Thanks:
Go to the top of the page
  Insert nick Quick quote
+Quote Post

Reply to this topicStart new topic
1 User(s) are reading this topic (1 Guests and 0 Anonymous Users)
0 Members:

 



- Lo-Fi Version Support form
Copyrights and abuse reports form
Time is now: 21st September 2019 - 06:15:58