Welcome Guest ( Log In | Register )

> И неформату есть предел.

Рэп/хип-хоп/шансон/поп удаляются. Для них есть свои порталы.

> Сахарный Человек - Ветер Цвета Смеющихся Радуг (2019), Psychedelic/Acid Rock
post Sep 4 2019, 06:28:57
Post #1
BAN
Banned till
Oct 7 2019, 23:44:15



(IMG:http://metalarea.org/images/audiocovers/2019_Sep/acov_tid326899_thumb.jpg)

*Artist: Сахарный Человек
*Album: Ветер Цвета Смеющихся Радуг
*Year: 2019
*Genre: Psychedelic/Acid Rock
*Country: Russian Federation (IMG:http://metalarea.org/forum/style_images/flags/Russian%20Federation.png)
*Format: mp3@CBR320kbps
*Size: 108MB

Tracklist:
1. Ветер Цвета Смеющихся Радуг 05:46
2. Ножи Утилизации 03:54
3. Сочетания 08:04
4. Шоколадный Омлет 03:44
5. Приключения 03:48
6. Чернее Черного 04:31
7. Фосфорный Камни 02:57
8. Волшебное Зеркало 13:33
******************************
Total playing time: 46:17

Preview 1

Technical info
(IMG:http://metalarea.org/images/spectrogram/2019_Sep/a69d98330d415d08a90b87e24a62162d.png)
Input File: Сахарный человек - Ветер цвета смеющихся радуг - 01 Ветер цвета смеющихся радуг.mp3
Channels : 2
Sample Rate : 44100
Precision : 16-bit
Duration : 00:05:46.27 = 15270595 samples = 25970.4 CDDA sectors
File Size : 14.0M
Bit Rate : 322k
Sample Encoding: MPEG audio (layer I, II or III)
Comments :
Title=Ветер цвета смеющихся радуг
Artist=Сахарный человек
Album=Ветер цвета смеющихся радуг
Tracknumber=1
Year=2019



Register


Thanks:
Go to the top of the page
  Insert nick Quick quote
+Quote Post
 
Start new topic
Replies (1 - 3)
post Sep 5 2019, 19:53:45
Post #2
BAN
Banned till
Oct 7 2019, 23:44:15



Воршипперы звучания конца 60-х - начала 70-х.
Go to the top of the page
  Insert nick Quick quote
+Quote Post
post Sep 6 2019, 07:40:18
Post #3

Герберт Уэст
**************
Group: Металариец
Posts: 2,153
Releases: 67
From: Поморье
On Forums: 10 years 3 months
Thanks: 4493 time(s)
Russian Federation


Весьма годно! В "Сочетаниях" даже почудился The End сами знаете от кого.)))
Go to the top of the page
  Insert nick Quick quote
+Quote Post
post Sep 6 2019, 07:41:40
Post #4
BAN
Banned till
Oct 7 2019, 23:44:15



Ром, я заливаю только первосорт в стиле.
Go to the top of the page
  Insert nick Quick quote
+Quote Post

Reply to this topicStart new topic
1 User(s) are reading this topic (1 Guests and 0 Anonymous Users)
0 Members:

 



- Lo-Fi Version Support form
Copyrights and abuse reports form
Time is now: 21st September 2019 - 05:40:50