Welcome Guest ( Log In | Register )

> Forum rules / Правила раздела

Here go releases which can't go to New releases forums due lack of information, stolen links or incorrect data and just founded in other sites links with minimum info. Reissue of this releases through Add release form with added/corrected data, info and own links highly welcomed.

Сюда уходят релизы, не пропущенные в основные релизные форумы по причинам отсутствия, недостаточности или неверности/некорректности сопровождающей информации, содержащие ссылки, указывающие на файлы, залитые не автором темы, а так же просто найденные где-то ссылки с минимумом информации. Переоформление тем отсюда через форму Добавления релиза с перезаливкой ссылок крайне приветствуется.

 
Reply to this topicStart new topic
> Rammstein - Raritäten [compilation] (2015), Industrial Metal (D13)
post Sep 4 2019, 08:07:42
Post #1

балабол
***********
Group: Металариец
Posts: 1,649
Releases: 1
From: РА-река
On Forums: 9 years 2 months
Thanks: 1393 time(s)
Russian Federation


(IMG:https://metalarea.org/images/audiocovers/2019_Sep/acov_tid326903_thumb.jpg)

*Artist: Rammstein
*Album: Raritäten [compilation]
*Year: 2015
*Genre: Industrial Metal
*Country: Germany (IMG:https://metalarea.org/forum/style_images/flags/Germany.png)
*Format: mp3@CBR320kbps
*Size: 157MB

Tracklist:
01 - Feuerräder
02 - Wilder Wein
03 - Das Modell
04 - Kokain
05 - Stripped
06 - Halleluja
07 - Mein Herz brennt (Piano Version)
08 - Los (Full Band Version)
09 - Führe Mich
10 - Donaukinder
11 - Halt
12 - Roter Sand (Orchester Version)
13 - Liese
14 - Mein Land
15 - Vergiss Uns Nicht
16 - Gib Mir Deine Augen
******************************
Total playing time: 1:10:13

Technical info
(IMG:https://metalarea.org/images/spectrogram/2019_Sep/2e57df944cbf133fe0a5472da8c31f9d.png)
Input File: 01. Feuerrader.mp3
Channels : 2
Sample Rate : 48000
Precision : 16-bit
Duration : 00:04:51.27 = 13980816 samples ~ 21845 CDDA sectors
File Size : 11.7M
Bit Rate : 320k
Sample Encoding: MPEG audio (layer I, II or III)
Comments :
Title=Feuerrader
Artist=Rammstein
Album=Raritäten
Tracknumber=1
Year=2015
Genre=19



Register


Go to the top of the page
  Insert nick Quick quote
+Quote Post

Reply to this topicStart new topic
2 User(s) are reading this topic (2 Guests and 0 Anonymous Users)
0 Members:

 



- Lo-Fi Version Support form
Copyrights and abuse reports form
Time is now: 4th June 2020 - 18:39:00