Welcome Guest ( Log In | Register )

> И неформату есть предел.

Рэп/хип-хоп/шансон/поп удаляются. Для них есть свои порталы.

> Бранимир - Семь Чудес (2015), Dark Folk/Dark Chanson
post Sep 4 2019, 13:52:16
Post #1

Mortuo ergo sum
*********
Group: Металариец
Posts: 927
Releases: 8
From: Казань
On Forums: 12 years 1 week
Thanks: 487 time(s)
Russian Federation


(IMG:https://metalarea.org/images/audiocovers/2019_Sep/acov_tid326910_thumb.jpeg)

*Artist: Бранимир
*Album: Семь Чудес
*Year: 2015
*Genre: Dark Folk/Dark Chanson
*Country: Russian Federation (IMG:https://metalarea.org/forum/style_images/flags/Russian%20Federation.png)
*Format: mp3@CBR320kbps
*Size: 163MB

Tracklist:
1. Intro 1:22
2. Мрачные посёлки средней полосы 6:21
3. Леший 2:07
4. Пацан (Гришка Тишин - 2) 2:44
5. Кинешма 6:15
6. П***ю! 4:19
7. У нас будет сын 4:36
8. На побывку 7:12
9. Счастье 3:39
10. Проснись, и - в бой! 2:55
******************************
Total playing time: 41:30

Preview 1

Extended info
Альбом записан в 2015 году на студии OneSide Records

Запись и сведение - Дмитрий Хорунжий
Все инструменты и песни - Бранимир
Дизайн - Лев Беляков
Рисунки - Елена Старик

Спасибо: Андрею Бледному, Ричу, Захару Прилепину, Юрию Смирнову, Анне Сеничевой, Степану Сиротину, Александру Власову, Леониду Габышеву, отцу Геннадию Ивановичу, Анатолию Тишину, городу Котово.

Цитата:
Бранимир
"Я всегда старался быть честным в своих творческих проявлениях - и писал, как чувствовал. Знаю, что от меня некоторые люди ждали очередного "левиафана". Да, так видеть мир сейчас модно. Но на эту тему уже спето достаточно. Тем более, от моего лица. Не хочу нагнетать...
"Семь чудес" тоже будут мрачноватыми для неподготовленного слушателя. В этом альбоме мне захотелось рассказать о поселковой жизни, о детстве. И увидеть в нем не только разруху родных пейзажей и диких синих аборигенов, но и великую сердечную силу, и веру в лучшее. Я исколесил почти всю страну с гастролями. И встретил очень много хороших людей. Поэтому обрел веру в наш великий народ. Об этом альбом. Про простых русских людей и их громадный потенциал, который волею исторических и социальных обстоятельств остался нереализованным.
Свято верю в то, что в жизни героев моего альбома начнут происходить чудеса. А это неизбежно. Главное - верить. И действовать."


Technical info
(IMG:https://metalarea.org/images/spectrogram/2019_Sep/20d7b05a28aeccba485d6b5b6dcc504d.png)
Input File: 01 - Intro.mp3
Channels : 2
Sample Rate : 44100
Precision : 16-bit
Duration : 00:01:22.08 = 3619772 samples = 6156.07 CDDA sectors
File Size : 3.28M
Bit Rate : 320k
Sample Encoding: MPEG audio (layer I, II or III)
Comments :
Title=Intro
Artist=Бранимир
Album=Семь чудес
Tracknumber=01/10
Year=2015



Register


Go to the top of the page
  Insert nick Quick quote
+Quote Post
 
Start new topic
Replies (1 - 4)
post Sep 6 2019, 23:11:33
Post #2

Попсовик от брутала
**************
Group: Металариец
Posts: 6,860
Releases: 66
From: Минск
On Forums: 10 years 9 months
Thanks: 5835 time(s)
Belarus


Довольно невзрачный альбом, держащийся на двух столпах: "Мрачные Поселки" и "На Побывку". Остальное выветривается быстро.
Go to the top of the page
  Insert nick Quick quote
+Quote Post
post Sep 7 2019, 18:20:44
Post #3

Mortuo ergo sum
*********
Group: Металариец
Posts: 927
Releases: 8
From: Казань
On Forums: 12 years 1 week
Thanks: 487 time(s)
Russian Federation


А у меня наоборот именно этот альбом любимый, но насчёт лучших треков, соглашусь, добавив ещё "По*ую!", к слову, текст песни Саша сочинил в моём родном городе, в 2014 году.

"На побывку" вообще совершенно "Шукшинская" своей атмосферой и посылом, явно вдохновлённая замечательным фильмом "Калина Красная". Лучшая на альбоме.
Go to the top of the page
  Insert nick Quick quote
+Quote Post
post Sep 9 2019, 07:08:21
Post #4

De Mysteriis Dom Sathanas
**************
Group: Металариец
Posts: 3,642
Releases: 63
From: Doom
On Forums: 11 years 2 months
Thanks: 3067 time(s)
Russian Federation


Шансон вроде удаляется..или темный шансон это что-то другое?
Go to the top of the page
  Insert nick Quick quote
+Quote Post
post Sep 9 2019, 13:10:43
Post #5

Mortuo ergo sum
*********
Group: Металариец
Posts: 927
Releases: 8
From: Казань
On Forums: 12 years 1 week
Thanks: 487 time(s)
Russian Federation


ЦИТАТА(RUSP73 @ Sep 9 2019, 09:08:21) *
Шансон вроде удаляется..или темный шансон это что-то другое?


На усмотрение модераторов конечно, но шансоном в плохом смысле здесь и не пахнет. Если не удаляли King Dude, то здесь и подавно нечего удалять.
Go to the top of the page
  Insert nick Quick quote
+Quote Post

Reply to this topicStart new topic
1 User(s) are reading this topic (1 Guests and 0 Anonymous Users)
0 Members:

 



- Lo-Fi Version Support form
Copyrights and abuse reports form
Time is now: 21st September 2019 - 05:36:25