Welcome Guest ( Log In | Register )

> Правила / Rules

Тут только для чтения лежат низкобитрейтные (<192kbps) релизы, для которых есть аналоги в высокобитрейтных форумах.

Here goes (and stand in read only mode) low bitrate releases (<192kbps) which were already replaced by high bitrate releases in corresponding forums.

> Horrific Demise - Excruciating Extermination (2019), Death Metal
post Sep 5 2019, 02:04:16
Post #1

Правь статус, ####!111
**************
Group: Металариец
Posts: 21,289
Releases: 14570
From: Г.Харьков
On Forums: 7 years 10 months
Thanks: 260195 time(s)
Unknown


(IMG:https://metalarea.org/images/audiocovers/2019_Sep/acov_tid326930_thumb.jpg)

*Artist: Horrific Demise
*Album: Excruciating Extermination
*Year: 2019
*Genre: Death Metal
*Country: United States (IMG:https://metalarea.org/forum/style_images/flags/United%20States.png)
*Format: mp3@CBR320kbps
*Size: 65MB

Tracklist:
1. Born from Brutality 03:02
2. Suicidal Frenzy 03:15
3. Maggot Ridden Human Feast 02:53
4. Cleansing the Putrescense 04:01
5. Apogee of Blaspheme 03:09
6. Religious Hypocrisy 03:14
7. Introduction to Atrocity 03:31
8. Voracious Cravings 03:25
9. Until Only We Remain 04:48
******************************
Total playing time: 31:18




Extended info
FLAC-Rip
Phil Good Bass
See also: Lust of Decay, Necrotic Disgorgement, Solidification, Created to Kill (live), ex-Moribund Fiend, ex-Coathanger Abortion, ex-Heinous Killings, ex-Immaculate Molestation (live)
Kyle Christman Drums
See also: Sarcophagy, Human Filleted, ex-Catatonic Atrocity, ex-Purulent Infection, Found Gutted, ex-Gorgasm
Anthony Voight Vocals
See also: Gorgasm, Sarcophagy, ex-Human Filleted
Matt Bishop Vocals, Guitars (2005-present)
See also: Human Artifacts, ex-Face of Ruin, Hideous, ex-Lividity, ex-Putrid Pile (live), ex-Ruthless Beatings, ex-Womp Rat
Tony Tipton Guitars (2013-present)
See also: Once Pure, Regurgitation, Sarcophagy, ex-Necrotic Disgorgement, ex-Witchnipple


Technical info
(IMG:https://metalarea.org/images/spectrogram/2019_Sep/d099c4a706bcaa6d4dd54025c8543717.png)
Input File: 04 Cleansing the Putrescense.mp3
Channels : 2
Sample Rate : 44100
Precision : 16-bit
Duration : 00:04:01.77 = 10662189 samples = 18133 CDDA sectors
File Size : 9.76M
Bit Rate : 323k
Sample Encoding: MPEG audio (layer I, II or III)
Comments :
Title=Cleansing the Putrescense
Artist=Horrific Demise
Album=Excruciating Extermination
Tracknumber=4
Year=2019



Register


Thanks:
Go to the top of the page
  Insert nick Quick quote
+Quote Post
 
Start new topic
Replies (1 - 2)
post Sep 5 2019, 20:15:17
Post #2

Добрейшей души Мегаманьяк
***********
Group: Металариец
Posts: 1,586
Releases: 0
From: Bashkortostan, Өфө
On Forums: 12 years 1 month
Thanks: 698 time(s)
Russian Federation


То что доктор прописал. Ляпота. Прям мёд в уши льётся.


Thanks:
Go to the top of the page
  Insert nick Quick quote
+Quote Post
post Sep 5 2019, 20:36:29
Post #3

Правь статус, ####!111
**************
Group: Металариец
Posts: 21,289
Releases: 14570
From: Г.Харьков
On Forums: 7 years 10 months
Thanks: 260195 time(s)
Unknown


FLAC (Tracks) 225mb
Register


Thanks:
Go to the top of the page
  Insert nick Quick quote
+Quote Post

Причина закрытия (Абигор 08-09-2019): Horrific Demise - Excruciating Extermination (2019)
Closed TopicStart new topic
2 User(s) are reading this topic (2 Guests and 0 Anonymous Users)
0 Members:

 



- Lo-Fi Version Support form
Copyrights and abuse reports form
Time is now: 7th April 2020 - 07:11:24