Welcome Guest ( Log In | Register )

> 

Здесь релизы с живыми прямыми ссылками на lossless

> Foscor - Els Sepulcres Blancs (2019), Progressive Dark Metal (D)
post Sep 5 2019, 11:45:13
Post #1

Serial Uploader
Group Icon
Group: V.I.P
Posts: 37,300
Releases: 35481
From: Lithuania
On Forums: 12 years 2 months
Thanks: 422918 time(s)
Lithuania


(IMG:https://metalarea.org/images/audiocovers/2019_Sep/acov_tid326940_thumb.jpg)

*Artist: Foscor
*Album: Els Sepulcres Blancs
*Year: 2019
*Genre: Progressive Dark Metal
*Country: Spain (IMG:https://metalarea.org/forum/style_images/flags/Spain.png)
*Format: mp3@CBR320kbps
*Size: 87MB

Tracklist:
01. Laments
02. Els colors del silenci
03. Malson
04. Secrets
05. Cel rogent
06. Cançó de mort
07. L'esglai
******************************
Total playing time: 37:51




(IMG:https://metalarea.org/images/youtube.png)

Technical info
(IMG:https://metalarea.org/images/spectrogram/2019_Sep/df4df51bc1656ed3c430435083029a73.png)
Input File: 2 - Els Colors del Silenci.mp3
Channels : 2
Sample Rate : 44100
Precision : 16-bit
Duration : 00:04:57.11 = 13102419 samples = 22283 CDDA sectors
File Size : 11.9M
Bit Rate : 321k
Sample Encoding: MPEG audio (layer I, II or III)
Comments :
Title=Els Colors del Silenci
Artist=Foscor
Album=Els Sepulcres Blancs
Tracknumber=2
Year=2019
Genre=Metal
Discnumber=1



Register


Go to the top of the page
  Insert nick Quick quote
+Quote Post
 
Start new topic
Replies (1 - 6)
post Sep 6 2019, 17:58:41
Post #2

Восемь Литров
********
Group: Металариец
Posts: 811
Releases: 2
On Forums: 9 years 10 months
Thanks: 349 time(s)
Belarus


это очень круто.спс


Thanks:
(1) Foneg,
Go to the top of the page
  Insert nick Quick quote
+Quote Post
post Sep 7 2019, 05:22:20
Post #3

Пусто
***********
Group: Металариец
Posts: 1,877
Releases: 27
From: Санкт-Петербург
On Forums: 13 years 7 months
Thanks: 1614 time(s)
Russian Federation


здесь вместо дарк метала лучше написать пост-блэк


Thanks:
(1) Foneg,
Go to the top of the page
  Insert nick Quick quote
+Quote Post
post Jan 15 2020, 07:56:40
Post #4

Правь статус, ####!111
**************
Group: Металариец
Posts: 8,684
Releases: 0
From: Москва
On Forums: 11 years 1 week
Thanks: 15269 time(s)
Russian Federation


Перезалейте плз
Go to the top of the page
  Insert nick Quick quote
+Quote Post
post Jan 15 2020, 11:04:51
Post #5

тебе 29, а ты все реверсами балуешься
***********
Group: Металариец
Posts: 1,971
Releases: 4
On Forums: 12 years 2 weeks
Thanks: 683 time(s)
Russian Federation


Похоже на Атому, очень круто (IMG:style_emoticons/default/20.gif) (IMG:style_emoticons/default/20.gif) (IMG:style_emoticons/default/20.gif)
Go to the top of the page
  Insert nick Quick quote
+Quote Post
post Jan 15 2020, 11:08:10
Post #6

Добрый
**************
Group: Металариец
Posts: 4,239
Releases: 0
On Forums: 2 years 1 month
Thanks: 8322 time(s)
Russian Federation


88 mb/320 kbps
Register


Go to the top of the page
  Insert nick Quick quote
+Quote Post
post Jan 16 2020, 18:18:25
Post #7

Group Icon
Group: S-moderation team
Posts: 16,131
Releases: 1440
From: Zagreb
On Forums: 9 years 5 months
Thanks: 72895 time(s)
Croatia


Register


Go to the top of the page
  Insert nick Quick quote
+Quote Post

Reply to this topicStart new topic
1 User(s) are reading this topic (1 Guests and 0 Anonymous Users)
0 Members:

 



- Lo-Fi Version Support form
Copyrights and abuse reports form
Time is now: 15th August 2020 - 06:18:56