Welcome Guest ( Log In | Register )

> Slaughtbbath - Alchemical Warfare (2019), Black Metal
post Sep 5 2019, 13:50:25
Post #1

Serial Uploader
Group Icon
Group: V.I.P
Posts: 37,011
Releases: 35193
From: Lithuania
On Forums: 11 years 8 months
Thanks: 414460 time(s)
Lithuania


(IMG:https://metalarea.org/images/audiocovers/2019_Sep/acov_tid326952_thumb.jpg)

*Artist: Slaughtbbath
*Album: Alchemical Warfare
*Year: 2019
*Genre: Black Metal
*Country: Chile (IMG:https://metalarea.org/forum/style_images/flags/Chile.png)
*Format: mp3@CBR320kbps
*Size: 81MB

Tracklist:
01. Ritual Bloodbath 02:53
02. Resuscitated by Immortal Scorn 02:51
03. Cavern of Misanthropy 04:36
04. Prophetic Crucifixion 03:09
05. Rejoined into Chaos 05:32
06. Alchemical Warfare 02:30
07. Amulets of Carnage 03:34
08. Celestial Overthrow 04:26
09. Ascension to the Dragon's Throne 05:01
******************************
Total playing time: 34:32



(IMG:https://metalarea.org/images/youtube.png)

Technical info
(IMG:https://metalarea.org/images/spectrogram/2019_Sep/83d172f86a0c9d7c548d134cc146cc9c.png)
Input File: 2 Resuscitated by Immortal Scorn.mp3
Channels : 2
Sample Rate : 44100
Precision : 16-bit
Duration : 00:02:51.97 = 7584009 samples = 12898 CDDA sectors
File Size : 7.13M
Bit Rate : 332k
Sample Encoding: MPEG audio (layer I, II or III)
Comments :
Title=Resuscitated by Immortal Scorn
Artist=Slaughtbbath
Album=Alchemical Warfare
Tracknumber=2/9
Year=2019
Discnumber=1/1



Register


Go to the top of the page
  Insert nick Quick quote
+Quote Post
 
Start new topic
Replies (1 - 5)
post Sep 5 2019, 21:29:53
Post #2

Добрейшей души Мегаманьяк
***********
Group: Металариец
Posts: 1,546
Releases: 0
From: Bashkortostan, Өфө
On Forums: 12 years 1 week
Thanks: 669 time(s)
Russian Federation


Помнится дебютный полноформат у них был хорош. И тут тоже неплохо, что-то из разряда DESTROYER 666 и NIFELHEIM.


Thanks:
(1) Leshiy666,
Go to the top of the page
  Insert nick Quick quote
+Quote Post
post Sep 6 2019, 17:16:02
Post #3

Шесть Литров
******
Group: Металариец
Posts: 535
Releases: 1
From: АР Крым, Симферополь
On Forums: 11 years 10 months
Thanks: 238 time(s)
Russian Federation


ЦИТАТА(asog @ 5th September 2019 - 23:29:53) *
Помнится дебютный полноформат у них был хорош. И тут тоже неплохо, что-то из разряда DESTROYER 666 и NIFELHEIM.


Второй альбом не хуже, здесь тоже такое же ярое оголтелое рубилово по олдскулу несётся со своим южноамериканским колоритом, на пятёрочку вообщем, зачет, огонь релиз, молодцы чилийцы!! (IMG:style_emoticons/default/m0114.gif) (IMG:style_emoticons/default/m1234.gif) (IMG:style_emoticons/default/metaler.gif) (IMG:style_emoticons/default/25.gif)


Go to the top of the page
  Insert nick Quick quote
+Quote Post
post Sep 6 2019, 18:52:42
Post #4

бутылка кефира полбатона
**********
Group: Металариец
Posts: 1,089
Releases: 0
From: Курганская обл., Шадринск
On Forums: 10 years 11 months
Thanks: 334 time(s)
Russian Federation


все так же круто, но немного сбивают с ритма замедления, как в начале 5 и 9 треков. а хочется беспрерывного башкотряса
непонятно только, почему на 3м треке так громкость занижена?
Go to the top of the page
  Insert nick Quick quote
+Quote Post
post Sep 6 2019, 20:15:22
Post #5

Правь статус, ####!111
**************
Group: Металариец
Posts: 20,635
Releases: 14084
From: Г.Харьков
On Forums: 7 years 9 months
Thanks: 248522 time(s)
Unknown


FlammenTod666,
ЦИТАТА
Flac?

FLAC (Tracks) 277mb
Register


Go to the top of the page
  Insert nick Quick quote
+Quote Post
post Sep 11 2019, 11:43:19
Post #6

Два Литра
**
Group: Завсегдатай
Posts: 186
Releases: 0
On Forums: 8 months 2 weeks
Thanks: 87 time(s)
Unknown


Башкотрясный музон (IMG:style_emoticons/default/metaler.gif)


Thanks:
(1) DarkHorde,
Go to the top of the page
  Insert nick Quick quote
+Quote Post

Reply to this topicStart new topic
2 User(s) are reading this topic (2 Guests and 0 Anonymous Users)
0 Members:

 



- Lo-Fi Version Support form
Copyrights and abuse reports form
Time is now: 20th February 2020 - 19:29:07