Welcome Guest ( Log In | Register )

> Alterant - Honor System (2019), Melodic Progressive Metal
post Sep 5 2019, 14:40:55
Post #1

Serial Uploader
Group Icon
Group: V.I.P
Posts: 37,011
Releases: 35193
From: Lithuania
On Forums: 11 years 8 months
Thanks: 414458 time(s)
Lithuania


(IMG:https://metalarea.org/images/audiocovers/2019_Sep/acov_tid326959_thumb.jpg)

*Artist: Alterant
*Album: Honor System
*Year: 2019
*Genre: Melodic Progressive Metal
*Country: United States (IMG:https://metalarea.org/forum/style_images/flags/United%20States.png)
*Format: mp3@CBR320kbps
*Size: 122MB

Tracklist:
01. Longevity (feat. Callum Howle)
02. Bleeding Out (feat. Andy Cizek)
03. Fight (feat. Callum Howle)
04. Sunset (feat. Andy Cizek)
05. Hollow (feat. Callum Howle)
06. Fragile (feat. Andy Cizek)
07. Parasites (feat. Callum Howle)
08. Supercharger (Instrumental)
09. Home (feat. Callum Howle)
10. Illusions (feat. Callum Howle)
11. Utopia (feat. Callum Howle & Tori Letzler)
******************************
Total playing time: 53:02



Technical info
(IMG:https://metalarea.org/images/spectrogram/2019_Sep/f05a3db09d4daf97d2cd703994ff6705.png)
Input File: 2 - Bleeding Out (feat. Andy Cizek).mp3
Channels : 2
Sample Rate : 44100
Precision : 16-bit
Duration : 00:04:16.88 = 11328232 samples = 19265.7 CDDA sectors
File Size : 10.3M
Bit Rate : 321k
Sample Encoding: MPEG audio (layer I, II or III)
Comments :
Title=Bleeding Out (feat. Andy Cizek)
Artist=Alterant/Andy Cizek
Album=Honor System
Tracknumber=2
Year=2019
Genre=Metal
Discnumber=1



Register


Go to the top of the page
  Insert nick Quick quote
+Quote Post
 
Start new topic
Replies (1 - 2)
post Sep 5 2019, 19:49:35
Post #2

MDM-Thrash Metal
**************
Group: Металариец
Posts: 9,258
Releases: 778
From: Одесса
On Forums: 12 years 6 months
Thanks: 20947 time(s)
Ukraine




Thanks:
Go to the top of the page
  Insert nick Quick quote
+Quote Post
post Sep 6 2019, 03:09:28
Post #3

Ъ
**************
Group: Металариец
Posts: 9,921
Releases: 9
On Forums: 11 years 1 month
Thanks: 1966 time(s)
Sweden


Третьесортный модерн.


Thanks:
(1) AHBAnep,
Go to the top of the page
  Insert nick Quick quote
+Quote Post

Reply to this topicStart new topic
2 User(s) are reading this topic (2 Guests and 0 Anonymous Users)
0 Members:

 



- Lo-Fi Version Support form
Copyrights and abuse reports form
Time is now: 20th February 2020 - 19:09:30