Welcome Guest ( Log In | Register )

> И неформату есть предел.

Рэп/хип-хоп/шансон/поп удаляются. Для них есть свои порталы.

 
Reply to this topicStart new topic
> Бранимир - Три Сына (2018), Dark Folk/Dark Chanson
post Sep 5 2019, 15:35:03
Post #1

Mortuo ergo sum
*********
Group: Металариец
Posts: 927
Releases: 8
From: Казань
On Forums: 12 years 1 week
Thanks: 487 time(s)
Russian Federation


(IMG:https://metalarea.org/images/audiocovers/2019_Sep/acov_tid326966_thumb.jpg)

*Artist: Бранимир
*Album: Три Сына
*Year: 2018
*Genre: Dark Folk/Dark Chanson
*Country: Russian Federation (IMG:https://metalarea.org/forum/style_images/flags/Russian%20Federation.png)
*Format: mp3@CBR320kbps
*Size: 87MB

Tracklist:
1. Рафинад 06:30
2. Колька 05:53
3. Отец 05:35
4. Ванька 02:57
5. Снег на голове 04:12
6. Пролог 00:47
7. Фома 05:29
8. Денди 05:48
******************************
Total playing time: 37:11



Extended info
Cover – Луперкаль
Instruments – Бранимир
Music By – Бранимир
Recorded By, Mixed By – Дмитрий Хорунжий
Words By – Бранимир (tracks: 1, 2, 4 to 8), Евгений Головин (track 3).

Отдельная благодарность Василию Попову, Луперкалю, Олегу Крупнову, Виктории Бабкиной, Кириллу Юркову, Сергею Симбирцеву, Игорю Шишкину, Александру Ф.Скляру, Илье Девушкину, Сергею Петрову
Городу Котово - особый привет.


Technical info
(IMG:https://metalarea.org/images/spectrogram/2019_Sep/f1b738bf51c91f3d7f8271a1226d47ae.png)
Input File: 03 - Отец.mp3
Channels : 2
Sample Rate : 44100
Precision : 16-bit
Duration : 00:00:00.34 = 14774 samples = 25.1259 CDDA sectors
File Size : 13.6M
Bit Rate : 324M
Sample Encoding: MPEG audio (layer I, II or III)
Comments :
Title=Отец
Artist=Бранимир
Album=Три сына
Tracknumber=03
Year=2018
Genre=Rock | Dark Chanson



Register


Go to the top of the page
  Insert nick Quick quote
+Quote Post

Reply to this topicStart new topic
1 User(s) are reading this topic (1 Guests and 0 Anonymous Users)
0 Members:

 



- Lo-Fi Version Support form
Copyrights and abuse reports form
Time is now: 21st September 2019 - 05:45:59