Welcome Guest ( Log In | Register )

> Правила / Rules

Тут только для чтения лежат низкобитрейтные (<192kbps) релизы, для которых есть аналоги в высокобитрейтных форумах.

Here goes (and stand in read only mode) low bitrate releases (<192kbps) which were already replaced by high bitrate releases in corresponding forums.

Причина закрытия (Абигор 08-09-2019): Raventale - Morphine Dead Gardens (2019)
 
Closed TopicStart new topic
> Raventale - Morphine Dead Gardens (2019), Funeral Doom Metal (D)
post Sep 5 2019, 20:54:57
Post #1

 
********
Group: Металариец
Posts: 840
Releases: 87
On Forums: 12 years 5 months
Thanks: 2361 time(s)
Russian Federation


(IMG:https://metalarea.org/images/audiocovers/2019_Sep/acov_tid326977_thumb.jpg)

*Artist: Raventale
*Album: Morphine Dead Gardens
*Year: 2019
*Genre: Funeral Doom Metal
*Country: Ukraine (IMG:https://metalarea.org/forum/style_images/flags/Ukraine.png)
*Format: mp3@CBR128kbps (IMG:https://metalarea.org/images/bit_low.gif)
*Size: 56MB

Tracklist:
1. As An Empty Shell
2. Lorn And Deserted
3. This Forsaken Place
4. In The Bitter Pain
5. Morphine Gardens
******************************
Total playing time: 1:00:00

Technical info
(IMG:https://metalarea.org/images/spectrogram/2019_Sep/373bd46c3eb4e0bc76927f8d664376bd.png)
Input File: 04. In The Bitter Pain.mp3
Channels : 2
Sample Rate : 44100
Precision : 16-bit
Duration : 00:09:40.16 = 25585188 samples = 43512.2 CDDA sectors
File Size : 9.43M
Bit Rate : 130k
Sample Encoding: MPEG audio (layer I, II or III)
Comments :
Title=In The Bitter Pain
Artist=Raventale
Album=Morphine Dead Gardens
Tracknumber=4
Year=2019
Genre=Doom Metal



Register


Go to the top of the page
  Insert nick Quick quote
+Quote Post

Причина закрытия (Абигор 08-09-2019): Raventale - Morphine Dead Gardens (2019)
Closed TopicStart new topic
1 User(s) are reading this topic (1 Guests and 0 Anonymous Users)
0 Members:

 



- Lo-Fi Version Support form
Copyrights and abuse reports form
Time is now: 27th September 2020 - 10:38:57