Welcome Guest ( Log In | Register )

> Mortal Infinity - In Cold Blood (2019), Thrash Metal
post Sep 6 2019, 00:43:47
Post #1

Правь статус, ####!111
**************
Group: Металариец
Posts: 19,839
Releases: 13457
From: Г.Харьков
On Forums: 7 years 7 months
Thanks: 232806 time(s)
Unknown


(IMG:https://metalarea.org/images/audiocovers/2019_Sep/acov_tid326980_thumb.jpg)

*Artist: Mortal Infinity
*Album: In Cold Blood
*Year: 2019
*Genre: Thrash Metal
*Country: Germany (IMG:https://metalarea.org/forum/style_images/flags/Germany.png)
*Format: mp3@CBR320kbps
*Size: 105MB

Tracklist:
01. Fellowship of Rats 04:31
02. Misanthropic Collapse 04:54
03. Repulsive Messiah 06:03
04. Dream Crusher 04:06
05. Long Forgotten Gods 04:50
06. Silent Assassin (Champion of War) 03:58
07. Devastator, Devastated 04:58
08. In Cold Blood 04:31
09. Ghost Ship Sailor 07:49
******************************
Total playing time: 45:40




Extended info
Marc Doblinger Guitars (2008-2009), Vocals (lead) (2008-present)
Sebastian Unrath Guitars (lead) (2009-present)
Alex Glaser Bass (2013-present)
Adrian Müller Drums (2013-present)
See also: Narsil, ex-RagTag



Technical info
(IMG:https://metalarea.org/images/spectrogram/2019_Sep/a8d6ab319676890d5ae3bb615a30a6f6.png)
Input File: 3 - Repulsive Messiah.mp3
Channels : 2
Sample Rate : 44100
Precision : 16-bit
Duration : 00:06:04.06 = 16055134 samples = 27304.6 CDDA sectors
File Size : 14.6M
Bit Rate : 322k
Sample Encoding: MPEG audio (layer I, II or III)
Comments :
Title=Repulsive Messiah
Artist=Mortal Infinity
Album=In Cold Blood
Tracknumber=3
Year=2019
Genre=Metal
Discnumber=1



Register


Go to the top of the page
  Insert nick Quick quote
+Quote Post
 
Start new topic
Replies (1 - 4)
post Sep 6 2019, 20:48:59
Post #2

Тридцать лет на борту "Тяжёлого" крейсера
**************
Group: Металариец
Posts: 2,129
Releases: 0
From: Питер
On Forums: 12 years 6 months
Thanks: 549 time(s)
Russian Federation


Неожиданно..зашли ребята. То ли пятница - вечер, то ли действительно стоящие треки наколбасили


Thanks:
Go to the top of the page
  Insert nick Quick quote
+Quote Post
post Sep 6 2019, 21:19:09
Post #3

Правь статус, ####!111
**************
Group: Металариец
Posts: 19,839
Releases: 13457
From: Г.Харьков
On Forums: 7 years 7 months
Thanks: 232806 time(s)
Unknown


ЦИТАТА(sadmannn @ 6th September 2019 - 20:48:59) *
Неожиданно..зашли ребята. То ли пятница - вечер, то ли действительно стоящие треки наколбасили

Та да-отличный качевый альбом немцы выдали (IMG:style_emoticons/default/metaler.gif)
Go to the top of the page
  Insert nick Quick quote
+Quote Post
post Sep 9 2019, 08:21:45
Post #4

Правь статус, ####!111
**************
Group: Металариец
Posts: 2,759
Releases: 8
From: Dnipro
On Forums: 11 years 4 months
Thanks: 863 time(s)
Ukraine


ЦИТАТА(Samaritianin @ Sep 6 2019, 23:19:09) *
Та да-отличный качевый альбом немцы выдали (IMG:style_emoticons/default/metaler.gif)

Ни чего удивительного в этом нет, у них ведь и предыдущие два полноформата очень не плохие были.
Go to the top of the page
  Insert nick Quick quote
+Quote Post
post Dec 3 2019, 06:36:35
Post #5

Три Литра
***
Group: Завсегдатай
Posts: 299
Releases: 0
From: Ташкент
On Forums: 11 years 10 months
Thanks: 77 time(s)
Uzbekistan


Чуть не проскочил мимо них, хоть и три месяца прошло. Неслыханно рад, что группа функционирует и записала этот альбом. Первое прослушивание моих чувств не обмануло, всё так же круто! Переплюнет ли он прошлый шедевр, не берусь утверждать, но материал точно не хуже.
Go to the top of the page
  Insert nick Quick quote
+Quote Post

Reply to this topicStart new topic
1 User(s) are reading this topic (1 Guests and 0 Anonymous Users)
0 Members:

 



- Lo-Fi Version Support form
Copyrights and abuse reports form
Time is now: 12th December 2019 - 14:38:40