Welcome Guest ( Log In | Register )

> Releases Upload / Добавление релизов

Добавить релиз тут / Click here to add release
Рекомендованные обменники / Recommended file shares

> The Smools - New Matter (2019), Progressive Metal
post Sep 6 2019, 14:13:54
Post #1

Serial Uploader
Group Icon
Group: V.I.P
Posts: 36,132
Releases: 34331
From: Lithuania
On Forums: 11 years 3 months
Thanks: 398102 time(s)
Lithuania


(IMG:https://metalarea.org/images/audiocovers/2019_Sep/acov_tid326998_thumb.jpg)

*Artist: The Smools
*Album: New Matter
*Year: 2019
*Genre: Progressive Metal
*Country: Russian Federation (IMG:https://metalarea.org/forum/style_images/flags/Russian%20Federation.png)
*Format: mp3@CBR320kbps
*Size: 60MB

Tracklist:
01. Captive
02. Silent Sky
03. Karma Mire
04. Downfall
05. The Boat
06. Allow
07. He's Coming
08. Polar Night
09. No Dust and Gray
******************************
Total playing time: 26:05



Technical info
(IMG:https://metalarea.org/images/spectrogram/2019_Sep/911680d279150e43586a36c2e65e2700.png)
Input File: 2 - Silent Sky.mp3
Channels : 2
Sample Rate : 44100
Precision : 16-bit
Duration : 00:02:30.73 = 6647369 samples = 11305 CDDA sectors
File Size : 6.08M
Bit Rate : 323k
Sample Encoding: MPEG audio (layer I, II or III)
Comments :
Title=Silent Sky
Artist=The Smools
Album=New Matter
Tracknumber=2
Year=2019
Genre=Metal
Discnumber=1



Register


Go to the top of the page
  Insert nick Quick quote
+Quote Post
 
Start new topic
Replies (1 - 3)
post Sep 7 2019, 12:39:23
Post #2

Ёлд ХеллоВяйне
Group Icon
Group: V.I.P
Posts: 27,762
Releases: 132
From: Питер
On Forums: 12 years 10 months
Thanks: 15698 time(s)
Russian Federation




Или так:
https://vk.com/thesmools
Go to the top of the page
  Insert nick Quick quote
+Quote Post
post Sep 8 2019, 12:59:07
Post #3

Четыре Литра
****
Group: Металариец
Posts: 339
Releases: 0
From: Сибирь
On Forums: 8 years 6 months
Thanks: 107 time(s)
Russian Federation


А по превью ничо так. Вокал только в ко́ровый скатывается. Modern metal добавить можно в теги
Go to the top of the page
  Insert nick Quick quote
+Quote Post
post Sep 11 2019, 07:49:14
Post #4

Ритуальные услуги
***********
Group: Металариец
Posts: 1,775
Releases: 32
On Forums: 1 year 7 months
Thanks: 1124 time(s)
Russian Federation




От Born of Osiris и Shokran восточные настроения. Вокал на удивление, для модернового направления, приятный. Что-то в этом есть.
Go to the top of the page
  Insert nick Quick quote
+Quote Post

Reply to this topicStart new topic
2 User(s) are reading this topic (2 Guests and 0 Anonymous Users)
0 Members:

 



- Lo-Fi Version Support form
Copyrights and abuse reports form
Time is now: 20th September 2019 - 06:14:39