Welcome Guest ( Log In | Register )

> Releases Upload / Добавление релизов

Добавить релиз тут / Click here to add release
Рекомендованные обменники / Recommended file shares

> Circus Maximus - Isolated Chapters [ep] (2019), Power/Progressive Metal
post Sep 7 2019, 13:44:30
Post #1

Serial Uploader
Group Icon
Group: V.I.P
Posts: 36,132
Releases: 34331
From: Lithuania
On Forums: 11 years 3 months
Thanks: 398102 time(s)
Lithuania


(IMG:https://metalarea.org/images/audiocovers/2019_Sep/acov_tid327074_thumb.jpg)

*Artist: Circus Maximus
*Album: Isolated Chapters [ep]
*Year: 2019
*Genre: Power/Progressive Metal
*Country: Norway (IMG:https://metalarea.org/forum/style_images/flags/Norway.png)
*Format: mp3@CBR320kbps
*Size: 41MB

Tracklist:
01. Phased Mirrors 10:21
02. Endgame 07:38
******************************
Total playing time: 17:59

(IMG:https://metalarea.org/images/myspace.png)



Technical info
(IMG:https://metalarea.org/images/spectrogram/2019_Sep/7a5bbe77b203605f301e605bdc01096a.png)
Input File: 02. Endgame.mp3
Channels : 2
Sample Rate : 44100
Precision : 16-bit
Duration : 00:07:38.45 = 20217689 samples = 34383.8 CDDA sectors
File Size : 18.4M
Bit Rate : 322k
Sample Encoding: MPEG audio (layer I, II or III)
Comments :
Title=Endgame
Artist=Circus Maximus
Album=Isolated Chapters
Tracknumber=2/2
Year=2019
Genre=9
Discnumber=1/1



Register


Go to the top of the page
  Insert nick Quick quote
+Quote Post
 
Start new topic
Replies (1 - 7)
post Sep 11 2019, 06:24:25
Post #2

Dark Ambient Shoujo
**********
Group: Металариец
Posts: 1,164
Releases: 1
On Forums: 10 years 8 months
Thanks: 584 time(s)
Russian Federation


ЦИТАТА
2 unreleased songs we never got to finish during ‘The 1st Chapter’ & ‘Isolate’ era is finally seeing the light of day.

Пока не новый альбом. Первый трек не очень, второй ок.
Go to the top of the page
  Insert nick Quick quote
+Quote Post
post Sep 11 2019, 09:55:05
Post #3

21st Century Schizoid Man
**************
Group: Металариец
Posts: 5,996
Releases: 73
From: Moscow
On Forums: 11 years 4 months
Thanks: 4680 time(s)
Russian Federation


Чёрт! Обрадовался. Спутал со Spheric Universe Experience.
Go to the top of the page
  Insert nick Quick quote
+Quote Post
post Sep 12 2019, 02:30:07
Post #4

Dark Ambient Shoujo
**********
Group: Металариец
Posts: 1,164
Releases: 1
On Forums: 10 years 8 months
Thanks: 584 time(s)
Russian Federation


Кстати, надеюсь, второй трек таки намекает на ориентир дальнейшего музыкального развития коллектива. Сейчас на самом деле мало кто играет такой позитивный прог (-павер).
Go to the top of the page
  Insert nick Quick quote
+Quote Post
post Sep 12 2019, 04:47:18
Post #5

Маньяк
**********
Group: Металариец
Posts: 1,190
Releases: 0
From: Moscow
On Forums: 11 years 10 months
Thanks: 682 time(s)
Russian Federation


QUOTE(Dreamtale @ 12th September 2019 - 04:30:07) *
Кстати, надеюсь, второй трек таки намекает на ориентир дальнейшего музыкального развития коллектива. Сейчас на самом деле мало кто играет такой позитивный прог (-павер).


Это очень сомнительно, ибо обе песни Киркусы написали к первому и второму альбому (отсюда и название EP) соответственно, и только сейчас довели до ума.
Go to the top of the page
  Insert nick Quick quote
+Quote Post
post Sep 13 2019, 17:28:43
Post #6

21st Century Schizoid Man
**************
Group: Металариец
Posts: 5,996
Releases: 73
From: Moscow
On Forums: 11 years 4 months
Thanks: 4680 time(s)
Russian Federation


ЦИТАТА(Dreamtale @ Sep 12 2019, 04:30:07) *
Сейчас на самом деле мало кто играет такой позитивный прог (-павер).

Dream Theater. (IMG:style_emoticons/default/bye.gif)
Go to the top of the page
  Insert nick Quick quote
+Quote Post
post Sep 13 2019, 17:52:17
Post #7

на аватаре не я
**************
Group: Металариец
Posts: 4,773
Releases: 6
From: "Самопровозглашенная ДНР" (с)
On Forums: 10 years 2 months
Thanks: 2270 time(s)
Russian Federation


Насчет позитива не знаю, но это действительно тот самый классический прог, которого сейчас уже не сыщешь. Правда, оба трэка уступают по крутости ранним работам.
Go to the top of the page
  Insert nick Quick quote
+Quote Post
post Sep 15 2019, 04:41:56
Post #8

Dark Ambient Shoujo
**********
Group: Металариец
Posts: 1,164
Releases: 1
On Forums: 10 years 8 months
Thanks: 584 time(s)
Russian Federation


ЦИТАТА(Yarri @ 13th September 2019 - 19:28:43) *
Dream Theater

Толсто (IMG:style_emoticons/default/22.gif)
Go to the top of the page
  Insert nick Quick quote
+Quote Post

Reply to this topicStart new topic
2 User(s) are reading this topic (2 Guests and 0 Anonymous Users)
0 Members:

 



- Lo-Fi Version Support form
Copyrights and abuse reports form
Time is now: 20th September 2019 - 06:14:48