Welcome Guest ( Log In | Register )

> И неформату есть предел.

Рэп/хип-хоп/шансон/поп удаляются. Для них есть свои порталы.

 
Reply to this topicStart new topic
> Free - 20Th Century Masters-The Millennium Collection:the Best Of Free [compilation] (2002), Blues Rock/Hard Rock
post Sep 8 2019, 07:36:47
Post #1

Пять Литров
*****
Group: Металариец
Posts: 470
Releases: 101
On Forums: 7 months 3 weeks
Thanks: 1020 time(s)
Canada


(IMG:https://metalarea.org/images/audiocovers/2019_Sep/acov_tid327103_thumb.jpg)

*Artist: Free
*Album: 20Th Century Masters-The Millennium Collection:the Best Of Free [compilation]
*Year: 2002
*Genre: Blues Rock/Hard Rock
*Country: United Kingdom (IMG:https://metalarea.org/forum/style_images/flags/United%20Kingdom.png)
*Format: mp3@CBR320kbps
*Size: 106MB

Tracklist:
1. I’m a Mover 02:57
2. Walk in My Shadow 03:31
3. I'll Be Creepin' 03:29
4. Fire and Water 03:58
5. All Right Now 05:34
6. Heavy Load 05:21
7. Stealer 03:15
8. Mr. Big 06:12
9. Catch a Train 03:28
10. Wishing Well 03:42
11. Come Together in the Morning 04:38
******************************
Total playing time: 46:05

Extended info
https://en.wikipedia.org/wiki/Free_(band)

Free were an English rock band formed in London in 1968, best known for their 1970 signature song "All Right Now".

They disbanded in 1973 and lead singer Paul Rodgers went on to become the frontman of the band Bad Company,
which also featured his Free bandmate Simon Kirke on drums.

Lead guitarist Paul Kossoff formed Back Street Crawler in 1975, but died from a pulmonary embolism at the age of 25 in 1976.
Bassist Andy Fraser formed Sharks.


https://en.wikipedia.org/wiki/20th_Century_Masters_%E2%80%93_The_Millennium_Collection:_The_Best_of_Free

Paul Rodgers – lead vocals, rhythm guitar on (10, 11), piano
Paul Kossoff – lead guitar, rhythm guitar
Andy Fraser – bass guitar, piano except on (10, 11)
Tetsu Yamauchi – bass guitar on (10, 11)
Simon Kirke – drums
Rebop Kwaku Baah – percussion on (10)
John Bundrick – organ, piano on (10, 11)


Technical info
(IMG:https://metalarea.org/images/spectrogram/2019_Sep/dbf7282fc8c6fa41d353578dcdc202b7.png)
Input File: 10. Free - Wishing Well.mp3
Channels : 2
Sample Rate : 44100
Precision : 16-bit
Duration : 00:03:42.71 = 9821335 samples = 16703 CDDA sectors
File Size : 8.93M
Bit Rate : 321k
Sample Encoding: MPEG audio (layer I, II or III)
Comments :
Title=Wishing Well
Artist=Free
Album=20th Century Masters - The Millennium Collection: The Best of Free
Tracknumber=10/11
Year=2002
Genre= Blues Rock, Hard Rock
Discnumber=1/1



Register


Go to the top of the page
  Insert nick Quick quote
+Quote Post

Reply to this topicStart new topic
1 User(s) are reading this topic (1 Guests and 0 Anonymous Users)
0 Members:

 



- Lo-Fi Version Support form
Copyrights and abuse reports form
Time is now: 21st September 2019 - 05:53:54