Welcome Guest ( Log In | Register )

> Bizarre Ejaculation & Bowel Evacuation & Cerebral Enema & Anal Fistfuckers & Hxmxrxs & Gecinyelő - 6 X Kotstulle Zum Mitnehmen [split] (2016), Groovy Porno Goregrind | Coprogrind | Groovy Goregrind | Coprogrind |
post Sep 8 2019, 11:29:38
Post #1

Девять Литров
*********
Group: Металариец
Posts: 990
Releases: 363
From: Саранск
On Forums: 8 years 6 months
Thanks: 2925 time(s)
Russian Federation


(IMG:https://metalarea.org/images/audiocovers/2019_Sep/acov_tid327108_thumb.jpg)

*Artist: Bizarre Ejaculation & Bowel Evacuation & Cerebral Enema & Anal Fistfuckers & Hxmxrxs & Gecinyelő
*Album: 6 X Kotstulle Zum Mitnehmen [split]
*Year: 2017
*Genre: Groovy Porno Goregrind | Coprogrind | Groovy Goregrind | Coprogrind | Porngrind | Porngrind
*Country: Mexico (IMG:https://metalarea.org/forum/style_images/flags/Mexico.png) | Germany (IMG:https://metalarea.org/forum/style_images/flags/Germany.png) | Germany (IMG:https://metalarea.org/forum/style_images/flags/Germany.png) | Germany (IMG:https://metalarea.org/forum/style_images/flags/Germany.png) | Germany (IMG:https://metalarea.org/forum/style_images/flags/Germany.png) | Hungary (IMG:https://metalarea.org/forum/style_images/flags/Hungary.png)
*Format: mp3@CBR320kbps
*Size: 130MB

Tracklist:
Bizarre Ejaculation:
1. Midget Fucking Olympics 01:59
2. Genital Apotemnophilia 01:39
3. Infibulated, Sodomised and Crucified 01:48
4. Pornobsession 01:33
5. Frenzied Facefuck Fanatic 01:29
Bowel Evacuation:
6. Human Toilet 03:01
7. Oh Mein Gott, Wie Soll Der Denn Da Rein? 02:14
8. Blowjob Von Hinten 02:36
9. Cuntfleshfilet - Fastfood vs. Slowfood 02:45
Cerebral Enema:
10. Eintauchen in den Plasmapool 02:32
11. Paranormal Virginity 01:16
12. Wiwi´s of Flesh and Blood 01:51
13. Foetus Blaster 01:13
14. I Am Orphancrippler 02:13
15. Zombie Apocalypse (Mortician cover) 02:53
Anal Fistfuckers:
16. Scat Wizard 00:31
17. Das Besteigen Der Lammer 01:07
18. Liebling, Ich habe die Kinder Gefickt 01:12
19. Die Verhurte Krankenschwester (Rektal Fetus cover) 01:18
20. LSD Anusrakete 01:08
21. Scatnado 00:57
22. Torso (Machetazo cover) 01:31
23. Scatnado (Demo 2009) 00:58
HxMxRxS:
24. Fame Bitch Fuck for Fameness 02:02
25. Fistfucking Fury 01:44
26. Kick in her Teeth (Toothless Blowjob) 00:15
27. Black Metal ist Kot 00:43
28. Cancer Dancer 00:37
29. Bitchslap the Unborn 01:52
30. Peewatch 00:39
31. Vomit Dolls Rape Bonanza 02:06
32. Living (2 Minute Dreka cover) 00:08
33. Die in Pain (Carcass cover) 00:10
34. You Suffer (Napalm Death cover) 00:09
Gecinyelő:
35. Cumlett 01:35
36. Menstrual Cupcakes 01:24
37. Xenophilic Desires 01:51
38. Night of the Titsuckers 01:45
39. Dildozer 02:20
******************************
Total playing time: 59:04

Technical info
(IMG:https://metalarea.org/images/spectrogram/2019_Sep/909063953881c807e57e6ef87f9e52bd.png)
Input File: 06 Bowel Evacuation - Human Toilet.mp3
Channels : 2
Sample Rate : 44100
Precision : 16-bit
Duration : 00:03:00.57 = 7963181 samples = 13542.8 CDDA sectors
File Size : 7.22M
Bit Rate : 320k
Sample Encoding: MPEG audio (layer I, II or III)
Comments :
Title=Human Toilet
Artist=Bowel Evacuation
Album=6 x Kotstulle Zum Mitnehmen (Split)
Tracknumber=6



Register


Go to the top of the page
  Insert nick Quick quote
+Quote Post
 
Start new topic
Replies (1 - 1)
post Sep 9 2019, 13:25:43
Post #2

Четыре Литра
****
Group: Металариец
Posts: 396
Releases: 0
From: Мурманск
On Forums: 9 years 7 months
Thanks: 496 time(s)
Russian Federation


Go to the top of the page
  Insert nick Quick quote
+Quote Post

Reply to this topicStart new topic
2 User(s) are reading this topic (2 Guests and 0 Anonymous Users)
0 Members:

 



- Lo-Fi Version Support form
Copyrights and abuse reports form
Time is now: 7th December 2019 - 07:27:04