Welcome Guest ( Log In | Register )

> Sewer - Gore Groovy Madness [ep] (2015), Groovy Goregrind (D8)
post Sep 8 2019, 11:34:11
Post #1

Девять Литров
*********
Group: Металариец
Posts: 991
Releases: 363
From: Саранск
On Forums: 8 years 6 months
Thanks: 2925 time(s)
Russian Federation


(IMG:https://metalarea.org/images/audiocovers/2019_Sep/acov_tid327109_thumb.jpg)

*Artist: Sewer
*Album: Gore Groovy Madness [ep]
*Year: 2015
*Genre: Groovy Goregrind
*Country: Brazil (IMG:https://metalarea.org/forum/style_images/flags/Brazil.png)
*Format: mp3@CBR320kbps
*Size: 33MB

Tracklist:
1. Morlock's Crocodile Orgy 03:05
2. Slaughter With Bored Eyes 01:51
3. Coq Beach Sewer Mermaid 02:51
4. Endless Dirt Path 02:03
5. Merde's Payback 02:34
6. Underworld Rat King 01:59
******************************
Total playing time: 14:23

Technical info
(IMG:https://metalarea.org/images/spectrogram/2019_Sep/2ff2eb78e570b346207d74a711206008.png)
Input File: 06 Underworld Rat King.mp3
Channels : 2
Sample Rate : 44100
Precision : 16-bit
Duration : 00:01:59.36 = 5263776 samples = 8952 CDDA sectors
File Size : 4.97M
Bit Rate : 333k
Sample Encoding: MPEG audio (layer I, II or III)
Comments :
Title=Underworld Rat King
Artist=Sewer
Album=GORE GROOVY MADNESS
Tracknumber=6
Year=2015



Register


Go to the top of the page
  Insert nick Quick quote
+Quote Post
 
Start new topic
Replies (1 - 1)
post Sep 8 2019, 22:31:39
Post #2

Социопат.Маргинал. Мизантроп.Нигилист. Перверзный нарциссист.
**************
Group: Металариец
Posts: 5,554
Releases: 667
From: Город-герой Ленинград
On Forums: 8 years 10 months
Thanks: 6267 time(s)
Russian Federation


Register
Go to the top of the page
  Insert nick Quick quote
+Quote Post

Reply to this topicStart new topic
2 User(s) are reading this topic (2 Guests and 0 Anonymous Users)
0 Members:

 



- Lo-Fi Version Support form
Copyrights and abuse reports form
Time is now: 8th December 2019 - 13:50:59