Welcome Guest ( Log In | Register )

> Правила / Rules

Тут только для чтения лежат низкобитрейтные (<192kbps) релизы, для которых есть аналоги в высокобитрейтных форумах.

Here goes (and stand in read only mode) low bitrate releases (<192kbps) which were already replaced by high bitrate releases in corresponding forums.

Причина закрытия (Абигор 19-09-2019): Necrowar - All Trajectory (2019)
 
Closed TopicStart new topic
> Necrowar - All Trajectory (2019), Death Metal
post Sep 8 2019, 17:55:16
Post #1

Каждое ваше "Спасибо" помогает мне понять, что я делаю новости не напрасно.
**************
Group: Металариец
Posts: 2,341
Releases: 2067
From: Одесса
On Forums: 11 years 8 months
Thanks: 18838 time(s)
Ukraine


(IMG:http://metalarea.org/images/audiocovers/2019_Sep/acov_tid327118_thumb.jpg)

*Artist: Necrowar
*Album: All Trajectory
*Year: 2019
*Genre: Death Metal
*Country: Brazil (IMG:http://metalarea.org/forum/style_images/flags/Brazil.png)
*Format: mp3@CBR128kbps (IMG:http://metalarea.org/images/bit_low.gif)
*Size: 57MB

Tracklist:
1.Libya 2019 00:37
2.Reality of Apocalypse 03:43
3.Killing a Blind 03:42
4.Victims of Ambition 04:37
5.Revolt 02:20
6.Blood War 06:12
7.Fruits of Greed 04:42
8.Venezuela 2019 00:48
9.Endless Sacrifice 04:07
10.Save World 04:13
11.Verdict 04:38
12.Open Now Brain 04:01
13.Alone 03:58
14.Gulf 1991 01:24
15.Uncertainties 06:44
16.The End 03:23
******************************
Total playing time: 59:09



Extended info
Line - up:

Danilo Amorin - Drums
Gilliardy Souza - Guitars (Ravishment, ex-Valheron, ex-Mare Dibere)
Ewerton Silva - Guitars (ex-Perseverance)
Emerson Santos - Vocals, Bass (Ravishment)

(IMG:https://www.metal-archives.com/images/7/7/0/4/77041_photo.jpg?3757)


Technical info
(IMG:http://metalarea.org/images/spectrogram/2019_Sep/bf79be759753954e250c55477adeed17.png)
Input File: 8 - Venezuela 2019.mp3
Channels : 2
Sample Rate : 44100
Precision : 16-bit
Duration : 00:00:48.65 = 2145553 samples = 3648.9 CDDA sectors
File Size : 782k
Bit Rate : 129k
Sample Encoding: MPEG audio (layer I, II or III)
Comments :
Title=Venezuela 2019
Artist=Necrowar
Album=All Trajectory
Tracknumber=8
Year=2019
Genre=22



Register


Go to the top of the page
  Insert nick Quick quote
+Quote Post

Причина закрытия (Абигор 19-09-2019): Necrowar - All Trajectory (2019)
Closed TopicStart new topic
2 User(s) are reading this topic (2 Guests and 0 Anonymous Users)
0 Members:

 



- Lo-Fi Version Support form
Copyrights and abuse reports form
Time is now: 21st February 2020 - 08:42:11