Welcome Guest ( Log In | Register )

> Releases Upload / Добавление релизов

Добавить релиз тут / Click here to add release
Рекомендованные обменники / Recommended file shares

 
Reply to this topicStart new topic
> Blunt Splitter - Cannabyss (2019), Drone/Doom/Sludge Metal
post Sep 10 2019, 13:10:50
Post #1

Serial Uploader
Group Icon
Group: V.I.P
Posts: 36,132
Releases: 34331
From: Lithuania
On Forums: 11 years 3 months
Thanks: 398108 time(s)
Lithuania


(IMG:https://metalarea.org/images/audiocovers/2019_Sep/acov_tid327178_thumb.jpg)

*Artist: Blunt Splitter
*Album: Cannabyss
*Year: 2019
*Genre: Drone/Doom/Sludge Metal
*Country: United States (IMG:https://metalarea.org/forum/style_images/flags/United%20States.png)
*Format: mp3@CBR320kbps
*Size: 116MB

Tracklist:
01. Smoke 05:52
02. Weedbomb 02:16
03. Cannabyss 06:04
04. Descend 00:17
05. Hellmouth 01:52
06. Fat 04:22
07. The Inferno's Menu 01:20
08. Doom Tomb 06:12
09. Godhole 05:30
10. Great Flower 06:08
11. Zaqqum 05:09
12. Dark Depths 03:28
13. Blunts 02:15
******************************
Total playing time: 50:45



(IMG:https://metalarea.org/images/youtube.png)

Technical info
(IMG:https://metalarea.org/images/spectrogram/2019_Sep/3ce0fcd40ac3814e8e16d25b9aec756c.png)
Input File: 02 - Weedbomb.mp3
Channels : 2
Sample Rate : 44100
Precision : 16-bit
Duration : 00:02:16.08 = 6001216 samples = 10206.1 CDDA sectors
File Size : 5.45M
Bit Rate : 320k
Sample Encoding: MPEG audio (layer I, II or III)
Comments :
Title=Weedbomb
Artist=Blunt Splitter
Album=Cannabyss
Tracknumber=2
Year=2019
Genre=Metal
Discnumber=1



Register


Go to the top of the page
  Insert nick Quick quote
+Quote Post

Reply to this topicStart new topic
1 User(s) are reading this topic (1 Guests and 0 Anonymous Users)
0 Members:

 



- Lo-Fi Version Support form
Copyrights and abuse reports form
Time is now: 20th September 2019 - 06:32:54