Welcome Guest ( Log In | Register )

> Releases Upload / Добавление релизов

Добавить релиз тут / Click here to add release
Рекомендованные обменники / Recommended file shares

 
Reply to this topicStart new topic
> Insomnio - Insidia (2019), Progressive Metal
post Sep 10 2019, 13:22:14
Post #1

Serial Uploader
Group Icon
Group: V.I.P
Posts: 36,132
Releases: 34331
From: Lithuania
On Forums: 11 years 3 months
Thanks: 398102 time(s)
Lithuania


(IMG:https://metalarea.org/images/audiocovers/2019_Sep/acov_tid327179_thumb.png)

*Artist: Insomnio
*Album: Insidia
*Year: 2019
*Genre: Progressive Metal
*Country: Mexico (IMG:https://metalarea.org/forum/style_images/flags/Mexico.png)
*Format: mp3@CBR320kbps
*Size: 80MB

Tracklist:
01. Me Decidí A Quererte
02. Insidia
03. Déficit
04. Noctis
05. Septum
06. Promisum
07. Guilty Soul
******************************
Total playing time: 34:45


(IMG:https://metalarea.org/images/youtube.png)

Technical info
(IMG:https://metalarea.org/images/spectrogram/2019_Sep/bdf8c51c2e2a231197d0693f3f968d71.png)
Input File: 02 - Insidia.mp3
Channels : 2
Sample Rate : 44100
Precision : 16-bit
Duration : 00:05:47.42 = 15321398 samples = 26056.8 CDDA sectors
File Size : 14.0M
Bit Rate : 322k
Sample Encoding: MPEG audio (layer I, II or III)
Comments :
Title=Insidia
Artist=Insomnio
Album=Insidia
Tracknumber=2
Year=2019
Genre=Metal
Discnumber=1



Register


Go to the top of the page
  Insert nick Quick quote
+Quote Post

Reply to this topicStart new topic
1 User(s) are reading this topic (1 Guests and 0 Anonymous Users)
0 Members:

 



- Lo-Fi Version Support form
Copyrights and abuse reports form
Time is now: 20th September 2019 - 06:14:36