Welcome Guest ( Log In | Register )

> Releases Upload / Добавление релизов

Добавить релиз тут / Click here to add release
Рекомендованные обменники / Recommended file shares

> Abbinormal - 1996 (2019), Death Metal/Grindcore
post Sep 10 2019, 13:35:15
Post #1

Serial Uploader
Group Icon
Group: V.I.P
Posts: 36,132
Releases: 34331
From: Lithuania
On Forums: 11 years 3 months
Thanks: 398103 time(s)
Lithuania


(IMG:https://metalarea.org/images/audiocovers/2019_Sep/acov_tid327180_thumb.jpg)

*Artist: Abbinormal
*Album: 1996
*Year: 2019
*Genre: Death Metal/Grindcore
*Country: Italy (IMG:https://metalarea.org/forum/style_images/flags/Italy.png)
*Format: mp3@CBR320kbps
*Size: 51MB

Tracklist:
01. Necromaniac
02. Epileptic Fit
03. Hellcore
04. He is the King
05. Gunkan
06. Let Me Show You How I Kill
07. Obsession
08. Earache
09. Low
10. Abbinormal
11. Urban Massacre
12. Dont You Worry About the Song
13. Macabre Dance of Death
14. Thermonuclear Extinction
15. Traumatic State of Cirrhosis
16. Bulletproof
******************************
Total playing time: 22:11


(IMG:https://metalarea.org/images/youtube.png)

Technical info
(IMG:https://metalarea.org/images/spectrogram/2019_Sep/2a02dfda725027c41dfbdac0b306ca90.png)
Input File: 02. Epileptic Fit.mp3
Channels : 2
Sample Rate : 44100
Precision : 16-bit
Duration : 00:01:24.10 = 3708590 samples = 6307.13 CDDA sectors
File Size : 3.51M
Bit Rate : 333k
Sample Encoding: MPEG audio (layer I, II or III)
Comments :
Title=Epileptic Fit
Artist=Abbinormal
Album=1996
Tracknumber=2/16
Year=2019
Genre=9
Discnumber=1/1



Register


Go to the top of the page
  Insert nick Quick quote
+Quote Post
 
Start new topic
Replies (1 - 1)
post Sep 11 2019, 05:54:19
Post #2

Три Литра
***
Group: Завсегдатай
Posts: 238
Releases: 0
From: Россия
On Forums: 7 years 7 months
Thanks: 80 time(s)
Russian Federation


Год релиза указан неверно!Это переиздание альбома 1996г Long in gestation.


Italian crossover masters Abbinormal release their, long in gestation album, 1996 worldwide via Sliptrick Records. The original body of tracks were written dating back to the year of the album title and now more than 20 years down the road, guitarist Max along with Eric (vocals and keyboards), Marco (bass) and young, powerful drummer LKT, the band have written 7 more pieces and rearranged the old songs that have never actually been released before.

Итальянские кроссовер-мастера Abbinormal релиз свой альбом "Long in беременности" 1996 года по всему миру. Оригинальное тело треков было написано еще в году названия альбома и теперь более 20 лет назад, гитарист Макс вместе с Эрик (вокал и клавиатуры), Марко (бас) и молодой, мощный барабанщик лкт, Группа написала еще 7 композиций и переставил старые песни, которые на самом деле никогда не были выпущены раньше
Go to the top of the page
  Insert nick Quick quote
+Quote Post

Reply to this topicStart new topic
1 User(s) are reading this topic (1 Guests and 0 Anonymous Users)
0 Members:

 



- Lo-Fi Version Support form
Copyrights and abuse reports form
Time is now: 20th September 2019 - 06:16:35