Welcome Guest ( Log In | Register )

> Releases Upload / Добавление релизов

Добавить релиз тут / Click here to add release
Рекомендованные обменники / Recommended file shares

 
Reply to this topicStart new topic
> Reflex Machine - Interzone (2019), Avant-Garde Metal
post Sep 10 2019, 13:49:49
Post #1

Serial Uploader
Group Icon
Group: V.I.P
Posts: 36,100
Releases: 34291
From: Lithuania
On Forums: 11 years 3 months
Thanks: 397807 time(s)
Lithuania


(IMG:https://metalarea.org/images/audiocovers/2019_Sep/acov_tid327181_thumb.jpg)

*Artist: Reflex Machine
*Album: Interzone
*Year: 2019
*Genre: Avant-Garde Metal
*Country: United States (IMG:https://metalarea.org/forum/style_images/flags/United%20States.png)
*Format: mp3@CBR320kbps
*Size: 105MB

Tracklist:
01. Interzone 05:10
02. The Descent: I. Enter Jones 07:26
03. The Descent: II. L'Appel du Vide 02:51
04. The Descent: III. Lust for Loss 05:57
05. Machina 04:43
06. Framed 04:03
07. Faulty Apparatus 04:14
08. Burn It Down 03:46
09. Mugwump 07:26
******************************
Total playing time: 45:36



(IMG:https://metalarea.org/images/youtube.png)

Technical info
(IMG:https://metalarea.org/images/spectrogram/2019_Sep/f9b0313dbc887c9688fdfde1b7850a83.png)
Input File: 07. Faulty Apparatus.mp3
Channels : 2
Sample Rate : 44100
Precision : 16-bit
Duration : 00:04:14.19 = 11209691 samples = 19064.1 CDDA sectors
File Size : 10.3M
Bit Rate : 323k
Sample Encoding: MPEG audio (layer I, II or III)
Comments :
Title=Faulty Apparatus
Artist=Reflex Machine
Album=Interzone
Tracknumber=7/9
Year=2019
Genre=9
Discnumber=1/1



Register


Go to the top of the page
  Insert nick Quick quote
+Quote Post

Reply to this topicStart new topic
2 User(s) are reading this topic (2 Guests and 0 Anonymous Users)
0 Members:

 



- Lo-Fi Version Support form
Copyrights and abuse reports form
Time is now: 19th September 2019 - 00:55:58