Welcome Guest ( Log In | Register )

> Releases Upload / Добавление релизов

Добавить релиз тут / Click here to add release
Рекомендованные обменники / Recommended file shares

> Sentire - Time And Motion (2019), Symphonic/Progressive Power Metal
post Sep 10 2019, 14:01:02
Post #1

Serial Uploader
Group Icon
Group: V.I.P
Posts: 36,132
Releases: 34331
From: Lithuania
On Forums: 11 years 3 months
Thanks: 398107 time(s)
Lithuania


(IMG:https://metalarea.org/images/audiocovers/2019_Sep/acov_tid327182_thumb.jpg)

*Artist: Sentire
*Album: Time And Motion
*Year: 2019
*Genre: Symphonic/Progressive Power Metal
*Country: United States (IMG:https://metalarea.org/forum/style_images/flags/United%20States.png)
*Format: mp3@CBR320kbps
*Size: 133MB

Tracklist:
01. The Descent 01:07
02. End of the World 05:04
03. The Aftermath 07:19
04. Fall 07:39
05. A Life Lived 05:50
06. Disarm... Dismantle 05:49
07. Man of the Year 06:47
08. The Devil's Grasp 12:48
09. Instrument of Evil 05:21
******************************
Total playing time: 57:44

(IMG:https://metalarea.org/images/youtube.png)

Technical info
(IMG:https://metalarea.org/images/spectrogram/2019_Sep/8631e3ef7498a331f4738a549fdff142.png)
Input File: 02. End of the World.mp3
Channels : 2
Sample Rate : 44100
Precision : 16-bit
Duration : 00:05:04.63 = 13434315 samples = 22847.5 CDDA sectors
File Size : 12.3M
Bit Rate : 322k
Sample Encoding: MPEG audio (layer I, II or III)
Comments :
Title=End of the World
Artist=sentire
Album=Time and Motion
Tracknumber=2/9
Year=2019
Genre=9
Discnumber=1/1



Register


Go to the top of the page
  Insert nick Quick quote
+Quote Post
 
Start new topic
Replies (1 - 3)
post Sep 11 2019, 07:21:01
Post #2

Четыре Литра
****
Group: Металариец
Posts: 304
Releases: 61
From: saratov
On Forums: 10 years 1 month
Thanks: 1482 time(s)
Russian Federation


Хороший дебют,очень хорошо
Go to the top of the page
  Insert nick Quick quote
+Quote Post
post Sep 11 2019, 08:29:31
Post #3

hearer & reader
**************
Group: Металариец
Posts: 8,033
Releases: 104
From: Moscow
On Forums: 12 years 1 week
Thanks: 7521 time(s)
Russian Federation


UK, probably
На архивах так, лэйбл английский.
music.yandex.ru/album/8690272
Недурно.
Go to the top of the page
  Insert nick Quick quote
+Quote Post
post Sep 11 2019, 13:04:18
Post #4

MDM-Thrash Metal
**************
Group: Металариец
Posts: 8,689
Releases: 604
From: Одесса
On Forums: 12 years 1 month
Thanks: 17401 time(s)
Ukraine


https://www.youtube.com/watch?v=Jp-x1egr9AM Sentire - End of the World
https://www.youtube.com/watch?v=wzNgfR1yv0Y Sentire - The Aftermath
https://www.youtube.com/watch?v=2MGxVIwY4R0 Sentire - Fall
https://www.youtube.com/watch?v=7uHKrGyBXYc Sentire - A Life Lived
https://www.youtube.com/watch?v=6Z4uE_UnXfo Sentire - Man of the Year
Go to the top of the page
  Insert nick Quick quote
+Quote Post

Reply to this topicStart new topic
2 User(s) are reading this topic (2 Guests and 0 Anonymous Users)
0 Members:

 



- Lo-Fi Version Support form
Copyrights and abuse reports form
Time is now: 20th September 2019 - 06:25:47