Welcome Guest ( Log In | Register )

> Releases Upload / Добавление релизов

Добавить релиз тут / Click here to add release
Рекомендованные обменники / Recommended file shares

> Seteranion - Loop Quantum Gravity: Journey Within The Bouncing Universe (2019), Technical/Progressive Death Metal/Fusion
post Sep 10 2019, 14:15:54
Post #1

Serial Uploader
Group Icon
Group: V.I.P
Posts: 36,100
Releases: 34291
From: Lithuania
On Forums: 11 years 3 months
Thanks: 397807 time(s)
Lithuania


(IMG:https://metalarea.org/images/audiocovers/2019_Sep/acov_tid327183_thumb.jpg)

*Artist: Seteranion
*Album: Loop Quantum Gravity: Journey Within The Bouncing Universe
*Year: 2019
*Genre: Technical/Progressive Death Metal/Fusion
*Country: France (IMG:https://metalarea.org/forum/style_images/flags/France.png)
*Format: mp3@CBR320kbps
*Size: 98MB

Tracklist:
01. Loop Quantum Gravity: Journey Within the Bouncing Universe 41:46
02. Big Crunch 00:52
******************************
Total playing time: 42:38


(IMG:https://metalarea.org/images/youtube.png)

Technical info
(IMG:https://metalarea.org/images/spectrogram/2019_Sep/b9f2dcb38b9c2e86d6afbb7a98e7a138.png)
Input File: 01 - Loop Quantum Gravity_ Journey Within the Bouncing Universe.mp3
Channels : 2
Sample Rate : 44100
Precision : 16-bit
Duration : 00:41:46.23 = 110524523 samples = 187967 CDDA sectors
File Size : 100M
Bit Rate : 320k
Sample Encoding: MPEG audio (layer I, II or III)
Comments :
Title=Loop Quantum Gravity: Journey Within the Bouncing Universe
Artist=Seteranion
Album=Loop Quantum Gravity: Journey Within the Bouncing Universe
Tracknumber=1
Year=2019
Genre=Metal
Discnumber=1



Register


Go to the top of the page
  Insert nick Quick quote
+Quote Post
 
Start new topic
Replies (1 - 1)
post Sep 11 2019, 06:30:18
Post #2

hearer & reader
**************
Group: Металариец
Posts: 8,029
Releases: 104
From: Moscow
On Forums: 12 years 1 week
Thanks: 7519 time(s)
Russian Federation


Лёгкий инструментал, характерный для 1-мэн банд. Есть какое-то бормотание. Никакого Death нет.
Go to the top of the page
  Insert nick Quick quote
+Quote Post

Reply to this topicStart new topic
2 User(s) are reading this topic (2 Guests and 0 Anonymous Users)
0 Members:

 



- Lo-Fi Version Support form
Copyrights and abuse reports form
Time is now: 19th September 2019 - 01:03:08