Welcome Guest ( Log In | Register )

> Releases Upload / Добавление релизов

Добавить релиз тут / Click here to add release
Рекомендованные обменники / Recommended file shares

 
Reply to this topicStart new topic
> Just Art Dead - Panic (2019), Instrumental/Progressive Metal
post Sep 10 2019, 14:27:33
Post #1

Serial Uploader
Group Icon
Group: V.I.P
Posts: 36,100
Releases: 34291
From: Lithuania
On Forums: 11 years 3 months
Thanks: 397807 time(s)
Lithuania


(IMG:https://metalarea.org/images/audiocovers/2019_Sep/acov_tid327184_thumb.jpg)

*Artist: Just Art Dead
*Album: Panic
*Year: 2019
*Genre: Instrumental/Progressive Metal
*Country: United States (IMG:https://metalarea.org/forum/style_images/flags/United%20States.png)
*Format: mp3@CBR320kbps
*Size: 103MB

Tracklist:
01. v/hite 06:05
02. Slow Death 05:00
03. Removal 02:21
04. Mirror 03:27
05. Attack 03:37
06. Parallel || 05:19
07. Coma 06:31
08. Waste 09:38
09. The Conquering 03:11
******************************
Total playing time: 45:09




Technical info
(IMG:https://metalarea.org/images/spectrogram/2019_Sep/3ff268514fe6264dc29f36b224f5f366.png)
Input File: 02. Slow Death.mp3
Channels : 2
Sample Rate : 44100
Precision : 16-bit
Duration : 00:05:00.61 = 13256901 samples = 22545.8 CDDA sectors
File Size : 12.1M
Bit Rate : 321k
Sample Encoding: MPEG audio (layer I, II or III)
Comments :
Title=Slow Death
Artist=Just Art Dead
Album=Panic
Tracknumber=2/9
Year=2019
Genre=9
Discnumber=1/1



Register


Go to the top of the page
  Insert nick Quick quote
+Quote Post

Reply to this topicStart new topic
2 User(s) are reading this topic (2 Guests and 0 Anonymous Users)
0 Members:

 



- Lo-Fi Version Support form
Copyrights and abuse reports form
Time is now: 19th September 2019 - 00:49:29