Welcome Guest ( Log In | Register )

> Releases Upload / Добавление релизов

Добавить релиз тут / Click here to add release
Рекомендованные обменники / Recommended file shares

 
Reply to this topicStart new topic
> Grosstracktor - Descontrol (2019), Groove Metal
post Sep 10 2019, 14:42:24
Post #1

Serial Uploader
Group Icon
Group: V.I.P
Posts: 36,100
Releases: 34291
From: Lithuania
On Forums: 11 years 3 months
Thanks: 397807 time(s)
Lithuania


(IMG:https://metalarea.org/images/audiocovers/2019_Sep/acov_tid327187_thumb.jpg)

*Artist: Grosstracktor
*Album: Descontrol
*Year: 2019
*Genre: Groove Metal
*Country: Chile (IMG:https://metalarea.org/forum/style_images/flags/Chile.png)
*Format: mp3@CBR320kbps
*Size: 71MB

Tracklist:
01. Prisioneros del olvido 05:15
02. Descontrol 03:31
03. Payasos Políticos 03:51
04. Protesto 03:35
05. Secreta Conspiración 03:57
06. Conformista 04:30
07. La Horca 03:33
******************************
Total playing time: 28:12


(IMG:https://metalarea.org/images/youtube.png)

Technical info
(IMG:https://metalarea.org/images/spectrogram/2019_Sep/ef37faab145dd00e3449986d40e98f13.png)
Input File: 02 - Descontrol.mp3
Channels : 2
Sample Rate : 44100
Precision : 16-bit
Duration : 00:03:30.82 = 9297294 samples = 15811.7 CDDA sectors
File Size : 8.83M
Bit Rate : 335k
Sample Encoding: MPEG audio (layer I, II or III)
Comments :
Title=Descontrol
Artist=Grosstracktor
Album=Descontrol
Tracknumber=2
Year=2019
Genre=Metal
Discnumber=1



Register


Go to the top of the page
  Insert nick Quick quote
+Quote Post

Reply to this topicStart new topic
2 User(s) are reading this topic (2 Guests and 0 Anonymous Users)
0 Members:

 



- Lo-Fi Version Support form
Copyrights and abuse reports form
Time is now: 19th September 2019 - 01:18:44