Welcome Guest ( Log In | Register )

> Releases Upload / Добавление релизов

Добавить релиз тут / Click here to add release
Рекомендованные обменники / Recommended file shares

 
Reply to this topicStart new topic
> Chronoclops - Chronoclops (2019), Stoner/Doom Metal
post Sep 10 2019, 14:54:41
Post #1

Serial Uploader
Group Icon
Group: V.I.P
Posts: 36,132
Releases: 34331
From: Lithuania
On Forums: 11 years 3 months
Thanks: 398108 time(s)
Lithuania


(IMG:https://metalarea.org/images/audiocovers/2019_Sep/acov_tid327190_thumb.jpg)

*Artist: Chronoclops
*Album: Chronoclops
*Year: 2019
*Genre: Stoner/Doom Metal
*Country: United States (IMG:https://metalarea.org/forum/style_images/flags/United%20States.png)
*Format: mp3@CBR320kbps
*Size: 141MB

Tracklist:
01. Axemagister 07:07
02. Maledictions upon the Warpath 06:23
03. Voidwalker - Knowledge Through Manipulation 01:16
04. Chronoclops 09:04
05. Acolytes of Blight 07:38
06. Voidscape 07:06
07. Sages 07:11
08. Obfuscation of Venus: Psionic Transmission, Last of the Venusians, Perils of Tamed Jungles, Riff in Peace (R.I.P.) 10:59
09. By the Will of the Pyromancer 05:00
******************************
Total playing time: 1:01:44



(IMG:https://metalarea.org/images/youtube.png)

Technical info
(IMG:https://metalarea.org/images/spectrogram/2019_Sep/0409c8ea861e9e6d579e1cba8c686b42.png)
Input File: 02 Maledictions Upon the Warpath.mp3
Channels : 2
Sample Rate : 44100
Precision : 16-bit
Duration : 00:06:23.27 = 16902031 samples = 28745 CDDA sectors
File Size : 15.3M
Bit Rate : 320k
Sample Encoding: MPEG audio (layer I, II or III)
Comments :
Title=Maledictions Upon the Warpath
Artist=Chronoclops
Album=Chronoclops
Tracknumber=2
Year=2019
Genre=Metal



Register


Go to the top of the page
  Insert nick Quick quote
+Quote Post

Reply to this topicStart new topic
1 User(s) are reading this topic (1 Guests and 0 Anonymous Users)
0 Members:

 



- Lo-Fi Version Support form
Copyrights and abuse reports form
Time is now: 20th September 2019 - 06:28:51