Welcome Guest ( Log In | Register )

> Releases Upload / Добавление релизов

Добавить релиз тут / Click here to add release
Рекомендованные обменники / Recommended file shares

 
Reply to this topicStart new topic
> Evilspeak - Evilspeak (2019), Stoner/Doom Metal
post Sep 10 2019, 15:04:16
Post #1

Serial Uploader
Group Icon
Group: V.I.P
Posts: 36,132
Releases: 34331
From: Lithuania
On Forums: 11 years 3 months
Thanks: 398102 time(s)
Lithuania


(IMG:https://metalarea.org/images/audiocovers/2019_Sep/acov_tid327193_thumb.jpg)

*Artist: Evilspeak
*Album: Evilspeak
*Year: 2019
*Genre: Stoner/Doom Metal
*Country: United States (IMG:https://metalarea.org/forum/style_images/flags/United%20States.png)
*Format: mp3@CBR320kbps
*Size: 76MB

Tracklist:
01. The Watcher 05:02
02. Nocturnal Rite 03:34
03. Out from the Grave 04:52
04. Instrumental 03:10
05. The Hand of Death 04:00
06. Lost in the Sun 10:42
******************************
Total playing time: 31:20


(IMG:https://metalarea.org/images/youtube.png)

Technical info
(IMG:https://metalarea.org/images/spectrogram/2019_Sep/c79c9ac9cd058631ec61e0d2d6373da6.png)
Input File: 02 Nocturnal Rite.mp3
Channels : 2
Sample Rate : 44100
Precision : 16-bit
Duration : 00:03:35.00 = 9481588 samples = 16125.1 CDDA sectors
File Size : 9.09M
Bit Rate : 338k
Sample Encoding: MPEG audio (layer I, II or III)
Comments :
Title=Nocturnal Rite
Artist=EVILSPEAK
Album=EVILSPEAK
Tracknumber=2
Year=2037
Genre=Metal



Register


Go to the top of the page
  Insert nick Quick quote
+Quote Post

Reply to this topicStart new topic
1 User(s) are reading this topic (1 Guests and 0 Anonymous Users)
0 Members:

 



- Lo-Fi Version Support form
Copyrights and abuse reports form
Time is now: 20th September 2019 - 06:15:10