Welcome Guest ( Log In | Register )

> Releases Upload / Добавление релизов

Добавить релиз тут / Click here to add release
Рекомендованные обменники / Recommended file shares

> Hemptress - Alchemy (2019), Stoner/Doom Metal
post Sep 10 2019, 15:13:27
Post #1

Serial Uploader
Group Icon
Group: V.I.P
Posts: 36,132
Releases: 34331
From: Lithuania
On Forums: 11 years 3 months
Thanks: 398103 time(s)
Lithuania


(IMG:https://metalarea.org/images/audiocovers/2019_Sep/acov_tid327195_thumb.jpg)

*Artist: Hemptress
*Album: Alchemy
*Year: 2019
*Genre: Stoner/Doom Metal
*Country: Canada (IMG:https://metalarea.org/forum/style_images/flags/Canada.png)
*Format: mp3@CBR320kbps
*Size: 118MB

Tracklist:
01. I Hear You Howlin 06:10
02. Moonlight Gunnin 06:13
03. Alabaster 04:15
04. When the Sun Goes Down 04:38
05. Mind Corruptor 07:46
06. Electric Fire 04:40
07. Maniac 06:14
08. Alchemy 11:38
******************************
Total playing time: 51:34



(IMG:https://metalarea.org/images/youtube.png)

Technical info
(IMG:https://metalarea.org/images/spectrogram/2019_Sep/92c29c7ad561764c872927d547512411.png)
Input File: 02 Moonlight Gunnin.mp3
Channels : 2
Sample Rate : 44100
Precision : 16-bit
Duration : 00:06:13.08 = 16452740 samples = 27980.9 CDDA sectors
File Size : 14.9M
Bit Rate : 320k
Sample Encoding: MPEG audio (layer I, II or III)
Comments :
Title=Moonlight Gunnin
Artist=Hemptress
Album=Alchemy
Tracknumber=2
Year=2019
Genre=Metal



Register


Go to the top of the page
  Insert nick Quick quote
+Quote Post
 
Start new topic
Replies (1 - 1)
post Sep 11 2019, 12:56:53
Post #2

Пять Литров
*****
Group: Металариец
Posts: 457
Releases: 1
From: АР Крым, Симферополь
On Forums: 11 years 5 months
Thanks: 179 time(s)
Russian Federation


Отличный бодрячковый стонер (IMG:style_emoticons/default/m0114.gif) (IMG:style_emoticons/default/metaler.gif) (IMG:style_emoticons/default/20.gif)

ЦИТАТА
Hemptress plays sludged out stoner rock n roll and sounds like a drunken and danked-up Santa on Christmas Eve with a THC-stained hemp-sack full of aural goodies distilled from bands such as Sleep, Electric Wizard, Eyehategod, Black Sabbath, All Them Witches, Asteroid, YOB, Goya, Clutch, Truckfighters and Budgie.
Go to the top of the page
  Insert nick Quick quote
+Quote Post

Reply to this topicStart new topic
1 User(s) are reading this topic (1 Guests and 0 Anonymous Users)
0 Members:

 



- Lo-Fi Version Support form
Copyrights and abuse reports form
Time is now: 20th September 2019 - 06:15:47