Welcome Guest ( Log In | Register )

> Releases Upload / Добавление релизов

Добавить релиз тут / Click here to add release
Рекомендованные обменники / Recommended file shares

 
Reply to this topicStart new topic
> Goregamel - Smurfkiller (2019), Grindcore
post Sep 10 2019, 16:00:05
Post #1

Serial Uploader
Group Icon
Group: V.I.P
Posts: 36,132
Releases: 34331
From: Lithuania
On Forums: 11 years 3 months
Thanks: 398109 time(s)
Lithuania


(IMG:https://metalarea.org/images/audiocovers/2019_Sep/acov_tid327196_thumb.jpg)

*Artist: Goregamel
*Album: Smurfkiller
*Year: 2019
*Genre: Grindcore
*Country: Israel (IMG:https://metalarea.org/forum/style_images/flags/Israel.png)
*Format: mp3@CBR320kbps
*Size: 93MB

Tracklist:
01. Intro... Total Destruction! 00:43
02. We Live In The World Ov Beep 01:00
03. Everybody Grind Now 00:31
04. ChaN-JA-KeY-ChaN-ChaN 00:40
05. Grindcore Italiano 00:29
06. Donald Trumpoline 00:27
07. What Is Grind?! 00:20
08. Rock Me Ashmodeus 00:46
09. IncuBator Gore 00:25
10. Viking Metal Sucks 01:02
11. Grind = Good 00:23
12. (You Can) Ring My Bell 00:24
13. Talimi Banana Boat Song 00:29
14. Zubin Me(h)tal 00:50
15. I Believe I Can Grind... 00:20
16. Black Betty (Crème Brûlée) 00:43
17. If I Was A Grind-Man 00:20
18. Dangerous Here Beavers 00:25
19. All You Need Is Grind 00:20
20. Grind #1 (Bonus? Track) 01:30
21. ...The Resurrection Ov Azrael 01:00
22. I Like To Grind It 00:34
23. What Was Was (Will Will) 00:20
24. Grindcore Brother 00:33
25. If You're Happy (Die Tonight) 00:12
26. Hi My Name Is Grind 00:33
27. Grindman's World 00:28
28. Love-Hate 00:52
29. It's My Grind 00:13
30. Gihatzt Lee Mich Nash 01:04
31. CousCous (Pussy Pussy) 00:23
32. No Woman Can Grind 00:29
33. Oggy (Lost His Mind) 00:11
34. And High Be 02:23
35. Lament Ov Hathatula 06:35
******************************
Total playing time: 27:57




Technical info
(IMG:https://metalarea.org/images/spectrogram/2019_Sep/5aa1c4c8f9dda0f24f376567344bfb4e.png)
Input File: 02. We Live In The World Ov BEEP.mp3
Channels : 2
Sample Rate : 44100
Precision : 16-bit
Duration : 00:01:00.06 = 2648558 samples = 4504.35 CDDA sectors
File Size : 2.66M
Bit Rate : 354k
Sample Encoding: MPEG audio (layer I, II or III)
Comments :
Title=We Live In The World Ov BEEP
Artist=Goregamel
Album=Smurfkiller [Deluxe Double Split Album]
Tracknumber=2
Year=2019



Register


Go to the top of the page
  Insert nick Quick quote
+Quote Post

Reply to this topicStart new topic
1 User(s) are reading this topic (1 Guests and 0 Anonymous Users)
0 Members:

 



- Lo-Fi Version Support form
Copyrights and abuse reports form
Time is now: 20th September 2019 - 06:51:48