Welcome Guest ( Log In | Register )

> Releases Upload / Добавление релизов

Добавить релиз тут / Click here to add release
Рекомендованные обменники / Recommended file shares

 
Reply to this topicStart new topic
> Verena Serene - Automation (2019), Instrumental Post-Metal
post Sep 10 2019, 16:11:41
Post #1

Serial Uploader
Group Icon
Group: V.I.P
Posts: 36,132
Releases: 34331
From: Lithuania
On Forums: 11 years 3 months
Thanks: 398105 time(s)
Lithuania


(IMG:https://metalarea.org/images/audiocovers/2019_Sep/acov_tid327197_thumb.jpg)

*Artist: Verena Serene
*Album: Automation
*Year: 2019
*Genre: Instrumental Post-Metal
*Country: United States (IMG:https://metalarea.org/forum/style_images/flags/United%20States.png)
*Format: mp3@CBR320kbps
*Size: 86MB

Tracklist:
01. Petra 08:42
02. Cause To Disappear 03:47
03. Turning 04:55
04. Maja 03:26
05. Ocean Tears 04:36
06. A Farewell To Kings And Queens 06:25
07. Maja (alternate version) 04:00
******************************
Total playing time: 35:51



(IMG:https://metalarea.org/images/youtube.png)

Technical info
(IMG:https://metalarea.org/images/spectrogram/2019_Sep/2f6e252396f84ec905a1d45e922b5b6a.png)
Input File: 02. Cause to Disappear.mp3
Channels : 2
Sample Rate : 44100
Precision : 16-bit
Duration : 00:03:48.09 = 10058769 samples = 17106.8 CDDA sectors
File Size : 9.64M
Bit Rate : 338k
Sample Encoding: MPEG audio (layer I, II or III)
Comments :
Title=Cause to Disappear
Artist=Verena Serene
Album=Automation
Tracknumber=2/7
Year=2019
Genre=Metal



Register


Go to the top of the page
  Insert nick Quick quote
+Quote Post

Reply to this topicStart new topic
1 User(s) are reading this topic (1 Guests and 0 Anonymous Users)
0 Members:

 



- Lo-Fi Version Support form
Copyrights and abuse reports form
Time is now: 20th September 2019 - 06:19:10