Welcome Guest ( Log In | Register )

> Releases Upload / Добавление релизов

Добавить релиз тут / Click here to add release
Рекомендованные обменники / Recommended file shares

> Iron Fist - Money Illusion [ep] (2018), Old School Thrash Metal
post Sep 10 2019, 17:16:41
Post #1

Правь статус, ####!111
**************
Group: Металариец
Posts: 18,519
Releases: 12530
From: Г.Харьков
On Forums: 7 years 4 months
Thanks: 212369 time(s)
Unknown


(IMG:http://metalarea.org/images/audiocovers/2019_Sep/acov_tid327198_thumb.jpg)

*Artist: Iron Fist
*Album: Money Illusion [ep]
*Year: 2018
*Genre: Old School Thrash Metal
*Country: Taiwan (IMG:http://metalarea.org/forum/style_images/flags/Taiwan.png)
*Format: mp3@CBR320kbps
*Size: 39MB

Tracklist:
1. Back in Thrash 04:09
2. The Killing Street 03:44
3. Electric Monster 04:09
4. Money Illusion 05:00
******************************
Total playing time: 17:02




Extended info
羿文 Bass
小檢 Drums
緯 Guitars
翰 Guitars
阿中 Vocals


Technical info
(IMG:http://metalarea.org/images/spectrogram/2019_Sep/3e84ca8748c5be0e58f982d6c0dc6be1.png)
Input File: 03 Electric Monster.mp3
Channels : 2
Sample Rate : 44100
Precision : 16-bit
Duration : 00:04:09.62 = 11008110 samples = 18721.3 CDDA sectors
File Size : 9.99M
Bit Rate : 320k
Sample Encoding: MPEG audio (layer I, II or III)
Comments :
Title=Electric Monster
Artist=Ironfist
Album=Money Illusion
Tracknumber=3/4
Year=2018
Genre=Metal
Discnumber=1/1



Register


Go to the top of the page
  Insert nick Quick quote
+Quote Post
 
Start new topic
Replies (1 - 2)
post Sep 11 2019, 15:35:41
Post #2

Литр
*
Group: Подсевший
Posts: 53
Releases: 0
On Forums: 10 months 5 days
Thanks: 21 time(s)
Russian Federation


Если видишь на обложке
Что кого-то дико жарят
Или монстр многоглазый рвёт там адски провода
Значит то альбом хороший, просто так не нарисуют
Резко скачивай и слушай, вот и тут конец стиха


Thanks:
Go to the top of the page
  Insert nick Quick quote
+Quote Post
post Sep 11 2019, 16:00:11
Post #3

Пять Литров
*****
Group: Металариец
Posts: 468
Releases: 0
From: Град Московский
On Forums: 11 years 8 months
Thanks: 112 time(s)
Russian Federation


Музон чумовой,олдовый,а вот вокал,не ахти,к сожалению...(
Go to the top of the page
  Insert nick Quick quote
+Quote Post

Reply to this topicStart new topic
2 User(s) are reading this topic (2 Guests and 0 Anonymous Users)
0 Members:

 



- Lo-Fi Version Support form
Copyrights and abuse reports form
Time is now: 19th September 2019 - 00:58:44